Ryu✩ feat.青龍

ADVANCED

Level: 8
BPM: 191
Notes: 476

1
口口口口 |----|
口口口口 |----|
口口口口 |----|
口口口口 |----|
2
口口口口 |----|
口口口口 |----|
口口口口 |----|
口口口口 |----|
3
口口口口 |----|
口口口口 |----|
口口口口 |----|
口口口口 |----|
4
口口口口 |----|
口口口口 |----|
口口口口 |----|
口口口口 |----|
5
口口口口 |----|
口口口口 |----|
口口口口 |----|
口口口口 |----|
6
口口口口 |----|
口口口口 |----|
口口口口 |----|
口口口口 |----|
7
口口口口 |①---|
口③口④ |②---|
口口口口 |--③-|
①口口② |④---|
8
口④口⑤ |①---|
口口口口 |②-③-|
①口③② |--④-|
口口口口 |⑤---|
9
口口口口 |①---|
口③口④ |②---|
口口口口 |--③-|
①口口② |④---|
10
口④口⑤ |①---|
口口口口 |②-③-|
①口③② |--④-|
口口口口 |⑤---|
11
口口口口 |①-②-|
④②⑦⑨ |③-④-|
口口⑤口 |⑤⑥-⑦|
③①⑥⑧ |-⑧-⑨|
12
④②⑦⑨ |①-②-|
口口口口 |③-④-|
③①⑥⑧ |⑤⑥-⑦|
口口⑤口 |-⑧-⑨|
13
口口口口 |①-②-|
④②⑦⑨ |③-④-|
口口⑤口 |⑤⑥-⑦|
③①⑥⑧ |-⑧-⑨|
14
④②⑦⑨ |①-②-|
口口口口 |③-④-|
③①⑥⑧ |⑤⑥-⑦|
口口⑤口 |-⑧-⑨|
15
④④⑧⑧ |①-②-|
②②⑥⑥ |③-④-|
③③⑦⑦ |⑤-⑥-|
①①⑤⑤ |⑦-⑧-|
16
④④⑧⑧ |①-②-|
②②⑥⑥ |③-④-|
③③⑦⑦ |⑤-⑥-|
①①⑤⑤ |⑦-⑧-|
17
口口口口 |①---|
②①③④ |②---|
口口口口 |③---|
②①③④ |④---|
18
③口④口 |①---|
②口口口 |②---|
①口口④ |③---|
口口口口 |④---|
19
口口口口 |①---|
②口口③ |----|
口口口口 |②---|
口①①口 |③---|
20
口③口口 |①--②|
⑤②口口 |--③-|
口①④④ |④---|
口口口口 |⑤---|
21
口③口口 |①---|
口②口口 |----|
口口口口 |②-③-|
口①①口 |----|
22
口⑤口③ |①--②|
口⑤口② |--③-|
口口口① |④---|
④④口口 |⑤---|
23
③口口③ |①---|
口口口口 |----|
②①①② |②---|
口口口口 |③---|
24
口④口口 |①--②|
口①②③ |--③-|
口④口口 |④---|
口口口口 |----|
25
口④口口 |①---|
②④口口 |②---|
口③③口 |③---|
口①①口 |④---|
26
③口④② |①---|
③口①② |②---|
③口口④ |③---|
口口口口 |④---|
27
口口口口 |①---|
口口口口 |②---|
口口口口 |③---|
①②③④ |④---|
28
口口口口 |①---|
口口口口 |②---|
口口口口 |③---|
①②③④ |④---|
29
口口口口 |①---|
口口口口 |②---|
口口口口 |③---|
①②③④ |④---|
30
口口口口 |①---|
口口③④ |②---|
口口口口 |③---|
①②口口 |④---|
31
口口口口 |①-②-|
口口口口 |③-④-|
②④⑥⑧ |⑤-⑥-|
①③⑤⑦ |⑦-⑧-|
32
口口口口 |①-②-|
口口口口 |③-④-|
②④⑥⑧ |⑤-⑥-|
①③⑤⑦ |⑦-⑧-|
33
口口口口 |①-②-|
口口口口 |③-④-|
②④⑥⑧ |⑤-⑥-|
①③⑤⑦ |⑦-⑧-|
34
②口口② |①---|
口①①口 |--②-|
口③③口 |----|
口口口口 |③---|
35
口②口口 |①---|
①口口口 |----|
口口口口 |②---|
口口口口 |----|
36
口口①口 |①---|
口口口② |----|
口口口口 |②---|
口口口口 |----|
37
口口口口 |①---|
口口口口 |----|
口口口① |②---|
口口②口 |----|
38
口口口口 |①---|
口口口口 |----|
②口口口 |②---|
口①口口 |----|
39
口口口口 |①---|
口③④口 |②---|
口②①口 |③---|
口口口口 |④---|
40
口口口口 |①---|
口口口① |②---|
口口口② |③---|
口口④③ |④---|
41
口口口口 |①---|
④口口口 |②---|
③口口口 |③---|
②①口口 |④---|
42
①②③④ |①---|
口口口口 |②---|
口口口口 |③---|
口口口口 |④---|
43
口口口口 |①-②-|
④②⑦⑨ |③-④-|
口口⑤口 |⑤⑥-⑦|
③①⑥⑧ |-⑧-⑨|
44
④②⑦⑨ |①-②-|
口口口口 |③-④-|
③①⑥⑧ |⑤⑥-⑦|
口口⑤口 |-⑧-⑨|
45
口口口口 |①-②-|
④②⑦⑨ |③-④-|
口口⑤口 |⑤⑥-⑦|
③①⑥⑧ |-⑧-⑨|
46
④②⑦⑨ |①-②-|
口口口口 |③-④-|
③①⑥⑧ |⑤⑥-⑦|
口口⑤口 |-⑧-⑨|
47
④④⑧⑧ |①-②-|
②②⑥⑥ |③-④-|
③③⑦⑦ |⑤-⑥-|
①①⑤⑤ |⑦-⑧-|
48
④④⑧⑧ |①-②-|
②②⑥⑥ |③-④-|
③③⑦⑦ |⑤-⑥-|
①①⑤⑤ |⑦-⑧-|
49
口口口口 |①---|
②①③④ |②---|
口口口口 |③---|
②①③④ |④---|
50
③口④口 |①---|
②口口口 |②---|
①口口④ |③---|
口口口口 |④---|
51
口口口口 |①---|
②③口口 |----|
口口口口 |②-③-|
口①①口 |----|
52
口⑦⑥③ |①--②|
⑤口口② |--③-|
口④口① |④-⑤-|
口口口口 |⑥⑦--|
53
口口口口 |①---|
②③口口 |----|
口口口口 |②-③-|
口①①口 |----|
54
口⑦⑥③ |①--②|
⑤口口② |--③-|
口④口① |④-⑤-|
口口口口 |⑥⑦--|
55
口口口口 |①---|
②③口口 |----|
口口口口 |②-③-|
口①①口 |----|
56
口口口③ |①--②|
口⑤⑤② |--③-|
口④④① |④---|
口口口口 |⑤---|
57
口④口口 |①---|
②④口口 |②---|
口③③口 |③---|
口①①口 |④---|
58
③口④② |①---|
③口①② |②---|
③口口④ |③---|
口口口口 |④---|
59
口②口口 |①---|
口②⑤⑦ |②---|
口口③口 |③④-⑤|
①①④⑥ |-⑥-⑦|
60
②口⑤⑦ |①---|
②口口口 |②---|
①①④⑥ |③④-⑤|
口口③口 |-⑥-⑦|
61
②口口口 |①---|
口②⑤⑦ |②---|
口口③口 |③④-⑤|
①①④⑥ |-⑥-⑦|
62
口②⑤⑦ |①---|
②口口口 |②---|
①①④⑥ |③④-⑤|
口口③口 |-⑥-⑦|
63
②口口口 |①---|
口②⑤⑦ |②---|
口口③口 |③④-⑤|
①①④⑥ |-⑥-⑦|
64
口②⑤⑦ |①---|
②口口口 |②---|
①①④⑥ |③④-⑤|
口口③口 |-⑥-⑦|
65
②口口口 |①---|
口②⑤⑦ |②---|
口口③口 |③④-⑤|
①①④⑥ |-⑥-⑦|
66
③口④口 |①---|
②口口口 |②---|
①口口④ |③---|
口口口口 |④---|
67
口口口口 |①---|
口②⑤⑦ |②---|
②①③口 |③④-⑤|
①口④⑥ |-⑥-⑦|
68
口①①口 |①---|
口口口口 |②---|
口口口④ |③---|
②③口④ |④---|
69
②口⑤⑦ |①---|
①②口口 |②---|
口①④⑥ |③④-⑤|
口口③口 |-⑥-⑦|
70
口③口口 |①--②|
③口口④ |--③-|
②②口口 |④---|
①①④口 |----|
71
口口口口 |①---|
②①⑤⑦ |②---|
口口③口 |③④-⑤|
①②④⑥ |-⑥-⑦|
72
①②⑤⑦ |①---|
口口口口 |②---|
②①④⑥ |③④-⑤|
口口③口 |-⑥-⑦|
73
口口口口 |①---|
②口口④ |②---|
口①③口 |③---|
②①③④ |④---|
74
③口④口 |①---|
②口口口 |②---|
①口口④ |③---|
口口口口 |④---|

不確定度: 0

最終更新:2017年06月21日 21:15