Giant Otter Family
S-C-U

BASIC

Level: 3
BPM: 188
Notes: 208

1
口口口口 |----|
口口口口 |----|
口口口口 |----|
口口口口 |----|
2
口口口口 |①---|
口①口口 |----|
口口口口 |----|
口口口口 |----|
3
口口口口 |①---|
口口口口 |----|
口①口口 |----|
口口口口 |----|
4
口口口口 |①---|
①口口口 |----|
口口口口 |----|
口口口口 |----|
5
口口口口 |①---|
口口口口 |----|
①口口口 |----|
口口口口 |----|
6
口口口口 |①---|
口①①口 |----|
口口口口 |----|
口口口口 |----|
7
口口口口 |①---|
口口口口 |----|
口①①口 |----|
口口口口 |----|
8
口口口口 |①---|
①口口① |----|
口口口口 |----|
②口口② |--②-|
9
口口口口 |--①-|
口①②口 |②---|
口口口口 |----|
口口口口 |----|
10
口口口口 |①---|
口口口口 |----|
①口口口 |----|
口口口口 |----|
11
口口口口 |①---|
口口口口 |----|
口口口① |----|
口口口口 |----|
12
口口口口 |①---|
①③③① |----|
口②②口 |②---|
口口口口 |③---|
13
口①①口 |①---|
口口口口 |----|
口口口口 |----|
口口口口 |----|
14
口口口口 |①---|
口口口口 |----|
①口口口 |----|
口口口口 |----|
15
口口口口 |①---|
口口口口 |----|
口口口① |----|
口口口口 |----|
16
口口口口 |①---|
口①①口 |----|
口①①口 |----|
口口口口 |----|
17
口口口口 |----|
口口口口 |----|
口口口口 |----|
口口口口 |----|
18
口口口口 |①---|
①口口口 |----|
口口口口 |----|
口口口口 |----|
19
口口口口 |①---|
口口口① |----|
口口口口 |----|
口口口口 |----|
20
口口口口 |①---|
③口口③ |----|
②①①② |②---|
口口口口 |③---|
21
①口口① |①---|
口口口口 |----|
口口口口 |----|
口口口口 |----|
22
口口口口 |①---|
口口口口 |----|
口①①口 |----|
口口口口 |----|
23
口口口口 |①---|
口①①口 |----|
②口口② |②---|
口口口口 |----|
24
口①①口 |①---|
口①①口 |----|
口口口口 |----|
口口口口 |----|
25
口口口口 |----|
口口口口 |----|
口口口口 |----|
口口口口 |----|
26
口口口口 |①---|
①②口口 |----|
口口口口 |②---|
口口口口 |----|
27
口口口口 |①---|
口口①② |----|
口口口口 |②---|
口口口口 |----|
28
口口口口 |①---|
口口口口 |----|
口口②① |②---|
口口口口 |----|
29
口口口口 |①---|
口口口口 |----|
②①口口 |②---|
口口口口 |----|
30
口口口口 |①---|
①②口口 |----|
口口口口 |②---|
口口口口 |----|
31
口口口口 |①---|
口口①② |----|
口口口口 |②---|
口口口口 |----|
32
口口口口 |①---|
口口口口 |----|
口口②① |②---|
口口口口 |----|
33
口口口口 |①---|
口口口口 |----|
②①口口 |②---|
口口口口 |----|
34
口口口口 |①---|
口①①口 |----|
口口口口 |----|
口口口口 |----|
35
口口口口 |----|
口口口口 |----|
口口口口 |----|
口口口口 |----|
36
口口口口 |①---|
口口口口 |----|
口①①口 |----|
口口口口 |----|
37
口口口口 |----|
口口口口 |----|
口口口口 |----|
口口口口 |----|
38
口口口口 |①---|
口①①口 |----|
口口口口 |----|
口口口口 |----|
39
口口口口 |----|
口口口口 |----|
口口口口 |----|
口口口口 |----|
40
口④④口 |①---|
口③③口 |--②-|
①②②① |--③-|
口口口口 |--④-|
41
口口口口 |----|
口口口口 |----|
口口口口 |----|
口口口口 |----|
42
口口口口 |①---|
口②②口 |----|
口①①口 |②---|
口口口口 |----|
43
口①①口 |①---|
口口口口 |----|
口口口口 |----|
口口口口 |----|
44
口口口口 |①---|
②口口② |----|
①口口① |②---|
口口口口 |----|
45
口②②口 |①---|
口口口口 |----|
口①①口 |②---|
口口口口 |----|
46
口口口口 |①---|
①②口口 |----|
口口口口 |②---|
口口口口 |----|
47
口口口口 |①---|
口口①② |----|
口口口口 |②---|
口口口口 |----|
48
口口口口 |①---|
口口口口 |----|
口①①口 |----|
口口口口 |----|
49
口口口口 |①---|
口①①口 |----|
口①①口 |----|
口口口口 |----|
50
口口口口 |①---|
口口口口 |----|
①口口口 |----|
口口口口 |----|
51
口口口口 |①---|
口口口口 |----|
口口口① |----|
口口口口 |----|
52
口口口口 |①---|
①③③① |----|
口②②口 |②---|
口口口口 |③---|
53
口①①口 |①---|
口口口口 |----|
口口口口 |----|
口口口口 |----|
54
口口口口 |①---|
口口口口 |----|
①口口口 |----|
口口口口 |----|
55
口口口口 |①---|
口口口口 |----|
口口口① |----|
口口口口 |----|
56
口口口口 |①---|
口①①口 |----|
口①①口 |----|
口口口口 |----|
57
口口口口 |----|
口口口口 |----|
口口口口 |----|
口口口口 |----|
58
口口口口 |①---|
①口口口 |----|
口口口口 |----|
口口口口 |----|
59
口口口口 |①---|
口口口① |----|
口口口口 |----|
口口口口 |----|
60
口口口口 |①---|
③口口③ |----|
②①①② |②---|
口口口口 |③---|
61
①口口① |①---|
口口口口 |----|
口口口口 |----|
口口口口 |----|
62
口口口口 |①---|
口口口口 |----|
口①①口 |----|
口口口口 |----|
63
口口口口 |①---|
口①①口 |----|
②口口② |②---|
口口口口 |----|
64
口①①口 |①---|
口①①口 |----|
口口口口 |----|
口口口口 |----|
65
口口口口 |----|
口口口口 |----|
口口口口 |----|
口口口口 |----|
66
口口口口 |①---|
①②口口 |----|
口口口口 |②---|
口口口口 |----|
67
口口口口 |①---|
口口①② |----|
口口口口 |②---|
口口口口 |----|
68
口口口口 |----|
口口口口 |----|
口口口口 |----|
口口口口 |----|
69
口口口口 |----|
口口口口 |----|
口口口口 |----|
口口口口 |----|
70
口口口口 |①---|
①②口口 |----|
①②口口 |②---|
口口口口 |----|
71
口口口口 |①---|
口口①② |----|
口口①② |②---|
口口口口 |----|
72
口口口口 |①---|
口①①口 |----|
口口口口 |----|
②口口② |--②-|
73
口口口口 |--①-|
口①②口 |②---|
口口口口 |----|
口口口口 |----|
74
口口口口 |①---|
口口口口 |----|
①①口口 |----|
口口口口 |----|
75
口口口口 |①---|
口口口口 |----|
口口①① |----|
口口口口 |----|
76
①口口① |①---|
①③③① |----|
口②②口 |②---|
口口口口 |③---|
77
口①①口 |①---|
口口口口 |----|
口口口口 |----|
口口口口 |----|
78
口口口口 |①---|
口口口口 |----|
①①口口 |----|
口口口口 |----|
79
口口口口 |①---|
口口口口 |----|
口口①① |----|
口口口口 |----|
80
口口口口 |①---|
口①①口 |----|
口①①口 |----|
口口口口 |----|
81
口口口口 |----|
口口口口 |----|
口口口口 |----|
口口口口 |----|
82
口口口口 |①---|
①①口口 |----|
口口口口 |----|
口口口口 |----|
83
口口口口 |①---|
口口①① |----|
口口口口 |----|
口口口口 |----|
84
口口口口 |①---|
③口口③ |----|
②①①② |②---|
口①①口 |③---|
85
①口口① |①---|
口口口口 |----|
口口口口 |----|
口口口口 |----|
86
口口口口 |①---|
口口口口 |----|
①①①① |----|
口口口口 |----|
87
口口口口 |①---|
①①①① |----|
②口口② |②---|
口口口口 |----|
88
口①①口 |①---|
口①①口 |----|
口口口口 |----|
口口口口 |----|

不確定度: 0

最終更新:2017年06月21日 21:14