coming true
GUHROOVY Vs. L.E.D.

EXTREME

Level: 9
BPM: 175
Notes: 802

1
口口口口 |----|
口口口口 |----|
口口口口 |----|
口口口口 |----|
2
①口口② |①②③④|
③口口④ |----|
⑤口口⑥ |⑤⑥⑦⑧|
⑦口口⑧ |----|
3
①⑭⑭② |①②③④|
③⑤⑥④ |⑤⑥⑦⑧|
⑨⑦⑧⑩ |⑨⑩⑪⑫|
⑪⑬⑬⑫ |⑬-⑭-|
4
①⑭⑭② |①②③④|
③⑤⑥④ |⑤⑥⑦⑧|
⑨⑦⑧⑩ |⑨⑩⑪⑫|
⑪⑬⑬⑫ |⑬-⑭-|
5
①⑭⑭② |①②③④|
③⑤⑥④ |⑤⑥⑦⑧|
⑨⑦⑧⑩ |⑨⑩⑪⑫|
⑪⑬⑬⑫ |⑬-⑭-|
6
①⑭⑭② |①②③④|
③⑤⑥④ |⑤⑥⑦⑧|
⑨⑦⑧⑩ |⑨⑩⑪⑫|
⑪⑬⑬⑫ |⑬-⑭-|
7
①⑭⑭② |①②③④|
③⑤⑥④ |⑤⑥⑦⑧|
⑨⑦⑧⑩ |⑨⑩⑪⑫|
⑪⑬⑬⑫ |⑬-⑭-|
8
①⑭⑭② |①②③④|
③⑤⑥④ |⑤⑥⑦⑧|
⑨⑦⑧⑩ |⑨⑩⑪⑫|
⑪⑬⑬⑫ |⑬-⑭-|
9
①口口② |①②③④|
③⑤⑥④ |⑤⑥⑦⑧|
⑨⑦⑧⑩ |⑨⑩⑪⑫|
⑪口口⑫ |----|
10
口①②③ |①-②-|
口⑦⑧口 |③-④-|
口⑨⑩口 |⑤-⑥-|
⑥⑤④口 |⑦⑧⑨⑩|
11
③口口口 |①-②-|
②⑦⑧④ |③-④-|
①⑨⑩⑤ |⑤-⑥-|
口口口⑥ |⑦⑧⑨⑩|
12
口①②③ |①-②-|
口⑦⑧口 |③-④-|
口⑨⑩口 |⑤-⑥-|
⑥⑤④口 |⑦⑧⑨⑩|
13
③口口口 |①-②-|
②⑦⑧④ |③-④-|
①⑨⑩⑤ |⑤-⑥-|
口口口⑥ |⑦⑧⑨⑩|
14
口①②③ |①-②-|
口⑦⑧口 |③-④-|
口⑨⑩口 |⑤-⑥-|
⑥⑤④口 |⑦⑧⑨⑩|
15
③口口口 |①-②-|
②⑦⑧④ |③-④-|
①⑨⑩⑤ |⑤-⑥-|
口口口⑥ |⑦⑧⑨⑩|
16
口①②③ |①-②-|
口⑦⑧口 |③-④-|
口⑨⑩口 |⑤-⑥-|
⑥⑤④口 |⑦⑧⑨⑩|
17
③④⑦⑦ |①-②-|
②口⑥口 |③-④-|
①口口⑥ |⑤--⑥|
口口⑤⑤ |--⑦-|
18
③口④⑤ |--①-|
口③④⑥ |-②--|
②②口口 |③--④|
①①口口 |--⑤⑥|
19
⑤⑤口口 |--①-|
④④口口 |-②--|
口③②① |③--④|
③口②① |--⑤-|
20
口口①① |--①-|
口口②② |-②--|
⑤④③口 |③--④|
⑤④口③ |--⑤-|
21
①②口③ |--①-|
①②③口 |-②--|
口口④④ |③--④|
口口⑤⑤ |--⑤-|
22
③口④⑤ |--①-|
口③④⑤ |-②--|
②②口口 |③--④|
①①口口 |--⑤-|
23
⑤⑤口口 |--①-|
④④口口 |-②--|
口③②① |③--④|
③口②① |--⑤-|
24
口口①① |--①-|
口口②② |-②--|
⑤④③口 |③--④|
⑤④口③ |--⑤-|
25
①②口③ |--①-|
①②③口 |-②--|
口口④④ |③--④|
口口⑤⑤ |--⑤-|
26
③⑤①② |--①-|
口口口④ |-②--|
④口③口 |③--④|
②①⑥口 |--⑤⑥|
27
④口③① |--①-|
口②口⑤ |-②--|
③口口② |③--④|
①⑤口④ |--⑤-|
28
⑤①②口 |--①-|
口③口④ |-②--|
④口①口 |③--④|
②口⑤③ |--⑤-|
29
口④⑤① |--①-|
②口口③ |-②--|
③口口口 |③--④|
①⑤④② |--⑤-|
30
①口④口 |--①-|
⑤③口② |-②--|
④口口① |③--④|
②口⑤③ |--⑤-|
31
口②⑤① |--①-|
④口口③ |-②--|
③口口口 |③--④|
⑤①④② |--⑤-|
32
①③④② |--①-|
④⑤口口 |-②--|
口口③⑤ |③--④|
口②口① |--⑤-|
33
④②口③ |--①-|
口口⑤① |-②--|
①⑤口口 |③--④|
③口②④ |--⑤-|
34
③④口口 |①---|
②口口口 |②---|
③④口① |--③-|
口口口口 |--④-|
35
口口②口 |①-②-|
口①口③ |--③-|
口口②口
口口口③

口口口口
口⑤④口
口口口口 |--④-|
口⑤④口 |--⑤-|
36
③④口口 |①---|
②口口口 |②---|
③④口① |--③-|
口口口口 |--④-|
37
口口①口 |--①-|
口④③② |--②-|
口口①口 |--③-|
口④③② |--④-|
38
口口④③ |①---|
口口口② |②---|
①口④③ |--③-|
口口口口 |--④-|
39
口②口口 |①-②-|
③口①口 |--③-|
口②口口
③口口口

口口口口
口④⑤口
口口口口 |--④-|
口④⑤口 |--⑤-|
40
口口④③ |①---|
口口口② |②---|
①口④③ |--③-|
口口口口 |--④-|
41
口①口口 |--①-|
②③④口 |--②-|
口①口口 |--③-|
②③④口 |--④-|
42
③④口口 |①---|
②口口口 |②---|
③④口① |--③-|
口口口口 |--④-|
43
口口②口 |①-②-|
口①口③ |--③-|
口口②口
口口口③

口口口口
口⑤④口
口口口口 |--④-|
口⑤④口 |--⑤-|
44
③④口口 |①---|
②口口口 |②---|
③④口① |--③-|
口口口口 |--④-|
45
口口①口 |--①-|
口④③② |--②-|
口口①口 |--③-|
口④③② |--④-|
46
口口④③ |①---|
口口口② |②---|
①口④③ |--③-|
口口口口 |--④-|
47
口②口口 |①-②-|
③口①口 |--③-|
口②口口
③口口口

口口口口
口④⑤口
口口口口 |--④-|
口④⑤口 |--⑤-|
48
口口④③ |①---|
口口口② |②---|
①口④③ |--③-|
口口口口 |--④-|
49
口①口口 |--①-|
②③④口 |--②-|
口①口口 |--③-|
②③④口 |--④-|
50
②口口③ |①---|
口口口口 |--②-|
①①①① |----|
口口口口 |③---|
51
②口口③ |①---|
口口口口 |--②-|
口①①口 |----|
口口口口 |③---|
52
②①口③ |①---|
①口口口 |--②-|
①口口口 |----|
口①口口 |③---|
53
②口①③ |①---|
口口①① |--②-|
口口①口 |----|
口口①① |③---|
54
②口口③ |①---|
口口口口 |--②-|
口①①口 |----|
口口口口 |③---|
55
②口口③ |①---|
口口口口 |--②-|
口①①口 |----|
口口口口 |③---|
56
②口口③ |①---|
口口口口 |--②-|
口①①口 |----|
口口口口 |③---|
57
②口口③ |①---|
口口口口 |--②-|
口①①口 |----|
口口口口 |③---|
58
口口口口 |①-②-|
②②②② |----|
①①①① |----|
口口口口 |----|
59
①②②③ |--①-|
口①③口 |-②--|
口⑤④口 |③--④|
⑤口口④ |--⑤-|
60
①口口② |--①-|
口①②③ |-②--|
口⑤④③ |③--④|
⑤口口④ |--⑤-|
61
①口口② |--①-|
口①②口 |-②--|
口⑤③口 |③--④|
⑤④④③ |--⑤-|
62
①口口② |--①-|
⑤①②口 |-②--|
⑤④③口 |③--④|
④口口③ |--⑤-|
63
①②②③ |--①-|
口①③口 |-②--|
口⑤④口 |③--④|
⑤口口④ |--⑤-|
64
①口口② |--①-|
口①②③ |-②--|
口⑤④③ |③--④|
⑤口口④ |--⑤-|
65
口①③⑤ |①--②|
①口③③ |--③-|
②口④⑤ |-④--|
口②④④ |⑤---|
66
⑤④⑥⑦ |①-②-|
①⑤⑥⑧ |-③④-|
③③口口 |⑤--⑥|
②②口口 |--⑦⑧|
67
⑦⑦口口 |①-②-|
⑥⑥口口 |-③④-|
④⑤③② |⑤--⑥|
⑤①③② |--⑦-|
68
口口②② |①-②-|
口口③③ |-③④-|
⑦⑥⑤① |⑤--⑥|
⑦⑥④⑤ |--⑦-|
69
②③①⑤ |①-②-|
②③⑤④ |-③④-|
口口⑥⑥ |⑤--⑥|
口口⑦⑦ |--⑦-|
70
⑤④⑥⑦ |①-②-|
①⑤⑥⑦ |-③④-|
③③口口 |⑤--⑥|
②②口口 |--⑦-|
71
⑦⑦口口 |①-②-|
⑥⑥口口 |-③④-|
④⑤③② |⑤--⑥|
⑤①③② |--⑦-|
72
口口②② |①-②-|
口口③③ |-③④-|
⑦⑥⑤① |⑤--⑥|
⑦⑥④⑤ |--⑦-|
73
②③①⑤ |①-②-|
②③⑤④ |-③④-|
口口⑥⑥ |⑤--⑥|
口口⑦⑦ |--⑦-|
74
⑤⑦②③ |①-②-|
口口④⑥ |-③④-|
⑥①⑤口 |⑤--⑥|
③②⑧口 |--⑦⑧|
75
⑥口⑤② |①-②-|
口③④⑦ |-③④-|
⑤①口③ |⑤--⑥|
②⑦口⑥ |--⑦-|
76
⑦②③口 |①-②-|
口⑤④⑥ |-③④-|
⑥①②口 |⑤--⑥|
③口⑦⑤ |--⑦-|
77
口⑥⑦② |①-②-|
③口④⑤ |-③④-|
⑤①口口 |⑤--⑥|
②⑦⑥③ |--⑦-|
78
②口⑥口 |①-②-|
⑦⑤④③ |-③④-|
⑥①口② |⑤--⑥|
③口⑦⑤ |--⑦-|
79
口③⑦② |①-②-|
⑥口④⑤ |-③④-|
⑤①口口 |⑤--⑥|
⑦②⑥③ |--⑦-|
80
②⑤⑥③ |①-②-|
⑥⑦④口 |-③④-|
口①⑤⑦ |⑤--⑥|
口③口② |--⑦-|
81
口⑥⑤④ |①--②|
口⑥⑤④ |--③-|
①②③口 |④--⑤|
①②③口 |--⑥-|
82
口口口口 |①---|
①口口口 |----|
口口口① |----|
口口口口 |----|
83
①②③口 |①---|
口口口口 |--②-|
口口口口 |----|
口③②① |③---|
84
口口口口 |①---|
口口①口 |----|
口①口口 |----|
口口口口 |----|
85
口口口① |----|
口口口口 |----|
口口口口 |----|
①口口口 |①---|
86
口口口口 |①---|
口口①口 |----|
口①口口 |----|
口口口口 |----|
87
口口口口 |①---|
①口口口 |----|
口口口① |----|
口口口口 |----|
88
口口口口 |①---|
口①口口 |----|
口口①口 |----|
口口口口 |----|


不确定度: 0

最終更新:2012年11月11日 16:27