現世の彼方
猫大樹

BASIC

Level: 3
BPM: 176
Notes: 199

1
口口口口 |----|
口口口口 |----|
口口口口 |----|
口口口口 |----|
2
口口口口 |①---|
①口口口 |----|
口口口口 |----|
口口口口 |----|
3
口口口口 |①---|
口①口口 |----|
口口口口 |----|
口口口口 |----|
4
口口口口 |①---|
口口①口 |----|
口口口口 |----|
口口口口 |----|
5
口口口口 |①---|
口口口① |----|
口口口口 |----|
口口口口 |----|
6
口口口口 |①---|
口口口口 |----|
口②②口 |②---|
口①①口 |----|
7
口②②口 |①---|
口①①口 |----|
口口口口 |②---|
口口口口 |----|
8
口口口口 |①---|
口口口口 |----|
口①①口 |----|
口口口口 |----|
9
口口口口 |----|
口口口口 |----|
口口口口 |----|
口口口口 |----|
10
口口口口 |①---|
口口口口 |----|
②口口② |②---|
①口口① |----|
11
②口口② |①---|
①口口① |----|
口口口口 |②---|
口口口口 |----|
12
口口口口 |①---|
口口口口 |----|
①口口① |----|
口口口口 |----|
13
口口口口 |----|
口口口口 |----|
口口口口 |----|
口口口口 |----|
14
口口口口 |①---|
口口口口 |----|
口口②② |②---|
①①口口 |----|
15
口口②② |①---|
①①口口 |----|
口口口口 |②---|
口口口口 |----|
16
口口口口 |①---|
口口口口 |----|
口①①口 |----|
口口口口 |----|
17
口口口口 |----|
口口口口 |----|
口口口口 |----|
口口口口 |----|
18
口口口口 |①---|
口口口口 |----|
②口口② |②---|
口①①口 |----|
19
②口口② |①---|
口①①口 |----|
口口口口 |②---|
口口口口 |----|
20
口①①口 |①---|
口①①口 |----|
口口口口 |----|
口口口口 |----|
21
口口口口 |----|
口口口口 |----|
口口口口 |----|
口口口口 |----|
22
口口口口 |①---|
口口口口 |----|
口口口① |②---|
口口②口 |----|
23
口口口口 |①---|
口口口口 |----|
②口口口 |②---|
口①口口 |----|
24
口②口口 |①---|
①口口口 |----|
口口口口 |②---|
口口口口 |----|
25
口口①口 |①---|
口口口② |----|
口口口口 |②---|
口口口口 |----|
26
口口口口 |①---|
口口口口 |----|
口口口① |②---|
口口②口 |----|
27
口口口口 |①---|
口口口口 |----|
②口口口 |②---|
口①口口 |----|
28
口口口口 |①---|
②①①② |----|
口口口口 |②---|
口口口口 |----|
29
口口口口 |①---|
口口口口 |----|
②①①② |②---|
口口口口 |----|
30
口口口口 |①---|
口口口口 |----|
口口口口 |----|
口口①口 |----|
31
口口口口 |①---|
口口口口 |----|
口口①口 |----|
口口口口 |----|
32
口口口口 |①---|
口口①口 |----|
口口口口 |----|
口口口口 |----|
33
口口①口 |①---|
口口口口 |----|
口口口口 |----|
口口口口 |----|
34
口①①口 |①---|
口口口口 |----|
口口口口 |----|
口口口口 |----|
35
①口口① |①---|
口口口口 |----|
口口口口 |----|
口口口口 |----|
36
口口口口 |①---|
①口口① |----|
口口口口 |----|
口口口口 |----|
37
口口口口 |----|
口口口口 |----|
口口口口 |----|
口口口口 |----|
38
口口口口 |①---|
口口口口 |----|
口口口口 |----|
口①口口 |----|
39
口口口口 |①---|
口口口口 |----|
口①口口 |----|
口口口口 |----|
40
口口口口 |①---|
口①口口 |----|
口口口口 |----|
口口口口 |----|
41
口①口口 |①---|
口口口口 |----|
口口口口 |----|
口口口口 |----|
42
口①①口 |①---|
口口口口 |----|
口口口口 |----|
口口口口 |----|
43
①口口① |①---|
口口口口 |----|
口口口口 |----|
口口口口 |----|
44
①①①① |①---|
口口口口 |----|
口口口口 |----|
口口口口 |----|
45
口口口口 |----|
口口口口 |----|
口口口口 |----|
口口口口 |----|
46
口②口口 |①---|
口①口口 |----|
口口口口 |②---|
口口口口 |----|
47
口口口口 |①---|
③②①口 |②---|
口口口口 |③---|
口口口口 |----|
48
口口口口 |①---|
口口口口 |----|
②①①② |②---|
口口口口 |----|
49
口口口口 |①---|
口口口口 |----|
②①①② |②---|
口口口口 |----|
50
口口②口 |①---|
口口①口 |----|
口口口口 |②---|
口口口口 |----|
51
口口口口 |①---|
口①②③ |②---|
口口口口 |③---|
口口口口 |----|
52
口口口口 |①---|
口口口口 |----|
②①①② |②---|
口口口口 |----|
53
口口口口 |①---|
口口口口 |----|
口①①口 |②---|
口②②口 |----|
54
口口口口 |----|
口口口口 |----|
口口口口 |----|
口口口口 |----|
55
口口口口 |①---|
口口口口 |----|
口①口口 |----|
口口口口 |----|
56
口口口口 |①---|
口口①口 |----|
口口口口 |----|
口口口口 |----|
57
口口口口 |①---|
口口口口 |----|
口①①口 |----|
口口口口 |----|
58
口口口口 |----|
口口口口 |----|
口口口口 |----|
口口口口 |----|
59
口口口口 |①---|
口口口口 |----|
口口①口 |----|
口口口口 |----|
60
口口口口 |①---|
口①口口 |----|
口口口口 |----|
口口口口 |----|
61
口口口口 |①---|
口口口口 |----|
口①①口 |----|
口口口口 |----|
62
口口口口 |①---|
①口口① |----|
口口口口 |----|
口口口口 |----|
63
口口口口 |①---|
口口口口 |----|
口②②口 |②---|
口①①口 |----|
64
口②②口 |①---|
口①①口 |----|
口口口口 |②---|
口口口口 |----|
65
口口口口 |①---|
口口口口 |----|
口①①口 |----|
口口口口 |----|
66
口口口口 |①---|
③②①口 |②---|
口口口口 |③---|
口口口口 |----|
67
口口口口 |①---|
口口口口 |----|
②口口② |②---|
①口口① |----|
68
②口口② |①---|
①口口① |----|
口口口口 |②---|
口口口口 |----|
69
口口口口 |①---|
口口口口 |----|
①口口① |----|
口口口口 |----|
70
口口口口 |①---|
口①②③ |②---|
口口口口 |③---|
口口口口 |----|
71
口口口口 |①---|
口口口口 |----|
②②口口 |②---|
口口①① |----|
72
②②口口 |①---|
口口①① |----|
口口口口 |②---|
口口口口 |----|
73
口口口口 |①---|
口口口口 |----|
口①①口 |----|
口口口口 |----|
74
口口口口 |①---|
①②③口 |②---|
口口口口 |③---|
口口口口 |----|
75
口口口口 |①---|
口口口口 |----|
②口口② |②---|
口①①口 |----|
76
②口口② |①---|
口①①口 |----|
口口口口 |②---|
口口口口 |----|
77
口①①口 |①---|
口①①口 |----|
口口口口 |----|
口口口口 |----|
78
口口口口 |①---|
④③②① |②---|
口口口口 |③---|
口口口口 |④---|
79
口口口口 |①---|
口口口口 |----|
①口口口 |②---|
口②口口 |----|
80
口口口口 |①---|
口口口口 |----|
口口口② |②---|
口口①口 |----|
81
口口②口 |①---|
口口口① |----|
口口口口 |②---|
口口口口 |----|
82
口①口口 |①---|
②口口口 |----|
口口口口 |②---|
口口口口 |----|
83
口口口口 |①---|
口口口口 |----|
①口口口 |②---|
口②口口 |----|
84
口口口口 |①---|
口口口口 |----|
口口口② |②---|
口口①口 |----|
85
口口口口 |①---|
②①①② |----|
口口口口 |②---|
口口口口 |----|
86
口口口口 |①---|
口口口口 |----|
②①①② |②---|
口口口口 |----|

不確定度: 0

最終更新:2017年05月12日 00:09