現世の彼方
猫大樹

ADVANCED

Level: 5
BPM: 176
Notes: 344

1
口口口口 |----|
口口口口 |----|
口口口口 |----|
口口口口 |----|
2
口①③口 |①---|
口口口口 |②---|
口②口口 |----|
口口口口 |③---|
3
口口口口 |①---|
②口口口 |----|
口口①口 |②---|
③口口口 |③---|
4
口③①口 |①---|
口口口口 |②---|
口口②口 |----|
口口口口 |③---|
5
口口口口 |①---|
口口口② |----|
口①口口 |②---|
口口口③ |③---|
6
口口口口 |①---|
口口口口 |----|
②②口口 |②---|
①①口口 |----|
7
②②口口 |①---|
①①口口 |----|
口口口口 |②---|
口口口口 |----|
8
口口口口 |①---|
口口①口 |----|
口①口口 |----|
口口口口 |----|
9
口口口口 |----|
口口口口 |----|
口口口口 |----|
口口口口 |----|
10
口口口口 |①---|
口口口口 |----|
口口②② |②---|
口口①① |----|
11
口口②② |①---|
口口①① |----|
口口口口 |②---|
口口口口 |----|
12
口口口口 |①---|
口①口口 |----|
口口①口 |----|
口口口口 |----|
13
口口口口 |----|
口口口口 |----|
口口口口 |----|
口口口口 |----|
14
口口口口 |①---|
口口口口 |----|
口②②口 |②---|
①口口① |----|
15
口②②口 |①---|
①口口① |----|
口口口口 |②---|
口口口口 |----|
16
口口口口 |①---|
口口①口 |----|
口①口口 |----|
口口口口 |----|
17
口口口口 |----|
口口口口 |----|
口口口口 |----|
口口口口 |----|
18
口口口口 |①---|
口口口口 |----|
①口口② |②---|
①口口② |----|
19
①口口② |①---|
①口口② |----|
口口口口 |②---|
口口口口 |----|
20
口①①口 |①---|
口①①口 |----|
口口口口 |----|
口口口口 |----|
21
口口口口 |----|
口口口口 |----|
口口口口 |----|
口口口口 |----|
22
口④④口 |①---|
③口口口 |②---|
②口口口 |③---|
①口口口 |④---|
23
口④④口 |①---|
口口口③ |②---|
口口口② |③---|
口口口① |④---|
24
口④④口 |①---|
口口③口 |②---|
口②口口 |③---|
①口口口 |④---|
25
口④④口 |①---|
口③口口 |②---|
口口②口 |③---|
口口口① |④---|
26
口④④口 |①---|
③口口口 |②---|
口②口口 |③---|
①口口口 |④---|
27
口④④口 |①---|
口口口③ |②---|
口口②口 |③---|
口口口① |④---|
28
口口口口 |①---|
①口口② |----|
①口口② |②---|
口口口口 |----|
29
口①口口 |①---|
口口②口 |②---|
口③口口 |③---|
口口④口 |④---|
30
口口口口 |①---|
口口口口 |----|
①口口① |----|
口口口口 |----|
31
口①口口 |①---|
口①口口 |----|
口口口口 |----|
口口口口 |----|
32
口口①口 |①---|
口口①口 |----|
口口口口 |----|
口口口口 |----|
33
①口口① |①---|
口口口口 |----|
②③口口 |②---|
口口口口 |③---|
34
口口口口 |①---|
口口口口 |----|
②③①口 |②---|
口口口口 |③---|
35
②②①① |①---|
④④③③ |②---|
口口口口 |③---|
口口口口 |④---|
36
口口口口 |①---|
口口口口 |----|
口①①口 |----|
口口口口 |----|
37
口①口口 |----|
口口①口 |----|
口口口口 |①---|
口口口口 |----|
38
口口口口 |①---|
口口口口 |----|
①口口① |----|
口口口口 |----|
39
口口①口 |①---|
口口①口 |----|
口口口口 |----|
口口口口 |----|
40
口①口口 |①---|
口①口口 |----|
口口口口 |----|
口口口口 |----|
41
①口口① |①---|
口口口口 |----|
口口③② |②---|
口口口口 |③---|
42
口口口口 |①---|
口口口口 |----|
口①③② |②---|
口口口口 |③---|
43
①①②② |①---|
③③口口 |②---|
口口口口 |③---|
口口口口 |----|
44
口口口口 |①---|
口口①① |----|
口口①① |----|
口口口口 |----|
45
①①①① |----|
口口口口 |----|
口口口口 |----|
口口口口 |①---|
46
口口口口 |①---|
④②④② |②---|
口口口口 |③---|
①口口③ |④---|
47
③口口③ |①---|
口②口② |②---|
口④④口 |③---|
①口口口 |④---|
48
口口口口 |①---|
①口口③ |②---|
口口口口 |③---|
口②④口 |④---|
49
口②④口 |①---|
口口口口 |②---|
①口口③ |③---|
口口口口 |④---|
50
口口口口 |①---|
②④②④ |②---|
口口口口 |③---|
③口口① |④---|
51
③口口③ |①---|
②口②口 |②---|
口④④口 |③---|
口口口① |④---|
52
口口口口 |①---|
③口口① |②---|
③口口① |③---|
④②②④ |④---|
53
口②②口 |①---|
口口口口 |②---|
③①①③ |③---|
口口口口 |----|
54
口口口口 |----|
口口口口 |----|
口口口口 |----|
口口口口 |----|
55
口口口口 |①---|
口口口② |----|
口口口② |②---|
口①①口 |----|
56
口②②口 |①---|
①口口口 |----|
①口口口 |②---|
口口口口 |----|
57
口口口口 |①---|
口口口口 |----|
口口口口 |----|
口①①口 |----|
58
口口口口 |----|
口口口口 |----|
口口口口 |----|
口口口口 |----|
59
口口口口 |①---|
②口口口 |----|
②口口口 |②---|
口①①口 |----|
60
口口口口 |①---|
口口口① |----|
口口口① |②---|
口②②口 |----|
61
口①①口 |①---|
口口口口 |----|
口口口口 |----|
口口口口 |----|
62
口口口口 |----|
口口口口 |----|
口口口口 |----|
口口口口 |----|
63
口口口口 |①---|
口口口口 |②---|
④口③③ |③---|
②口①① |④---|
64
④口③③ |①---|
②口①① |②---|
口口口口 |③---|
口口口口 |④---|
65
④口口口 |①---|
口①口口 |②---|
口口①口 |③---|
③口口② |④---|
66
口口口① |①---|
口④④口 |②---|
③口口② |③---|
口口口口 |④---|
67
口口口口 |①---|
口口口口 |②---|
③③口④ |③---|
①①口② |④---|
68
③③口④ |①---|
①①口② |②---|
口口口口 |③---|
口口口口 |④---|
69
口口口④ |①---|
口口①口 |②---|
口①口口 |③---|
②口口③ |④---|
70
①口口口 |①---|
口④④口 |②---|
②口口③ |③---|
口口口口 |④---|
71
口口口口 |①---|
口口口口 |②---|
②③③④ |③---|
①口口① |④---|
72
④③③② |①---|
①口口① |②---|
口口口口 |③---|
口口口口 |④---|
73
④口口口 |①---|
口①口口 |②---|
口口①口 |③---|
③口口② |④---|
74
口口口① |①---|
口④④口 |②---|
③口口② |③---|
口口口口 |④---|
75
②口口④ |①---|
口口口口 |②---|
口③①口 |③---|
③口口① |④---|
76
口③③口 |①---|
口①口口 |②---|
口口①口 |③---|
④口口② |④---|
77
口口口口 |①---|
①口口① |----|
口①①口 |----|
口口口口 |----|
78
④口口④ |①---|
②口口② |②---|
口③③口 |③---|
口①①口 |④---|
79
口口④口 |①---|
口④口③ |②---|
口口口② |③---|
口口口① |④---|
80
口④口口 |①---|
③口④口 |②---|
②口口口 |③---|
①口口口 |④---|
81
④④口口 |①---|
口③口口 |②---|
口口②口 |③---|
口口口① |④---|
82
口口④④ |①---|
口口③口 |②---|
口②口口 |③---|
①口口口 |④---|
83
口口④口 |①---|
口④口③ |②---|
口口②口 |③---|
口口口① |④---|
84
口④口口 |①---|
③口④口 |②---|
口②口口 |③---|
①口口口 |④---|
85
口口口口 |①---|
②口口① |----|
②口口① |②---|
口口口口 |----|
86
口①①口 |①---|
口②②口 |②---|
口③③口 |③---|
口④④口 |④---|

不確定度: 0

最終更新:2017年05月12日 00:09