現世の彼方
猫大樹

EXTREME

Level: 10
BPM: 176
Notes: 773

1
口口口口 |----|
口口口口 |----|
口口口口 |----|
①口口① |①---|
2
口口口口 |①-②-|
①③⑦⑤ |③-④-|
②口口⑥ |--⑤-|
口④口口 |⑥-⑦-|
3
口口口口 |①---|
②④口口 |--②-|
③口口口 |③-④-|
口⑤①口 |⑤---|
4
口口口口 |①-②-|
⑤⑦③① |③-④-|
⑥口口② |--⑤-|
口口④口 |⑥-⑦-|
5
口口口口 |①---|
口口④② |--②-|
口口口③ |③-④-|
口①⑤口 |⑤---|
6
口③口② |①---|
③①口口 |②---|
①口口③ |③---|
④口口① |④---|
7
①③①② |①---|
④⑤④① |②---|
③口口口 |③--④|
口口⑤口 |--⑤-|
8
口口口② |①---|
口口口口 |②---|
口口口① |----|
口①口③ |③---|
9
①口②口 |①-②③|
口③口⑦ |④⑤⑥⑦|
④口⑥口
口⑤口口

⑬⑭口⑧
口口⑨口
口⑩口⑫ |⑧⑨⑩⑪|
口口⑪口 |⑫-⑬⑭|
10
④口①③ |①---|
①③口口 |②---|
口口口口 |③---|
口口口② |④---|
11
口③①口 |①---|
①口④① |②---|
③⑤口⑤ |③--④|
口④口② |--⑤-|
12
①⑦⑤① |①②③④|
⑥②口④ |⑤-⑥⑦|
口口③口 |--⑧⑨|
⑩⑨⑧⑪ |⑩-⑪-|
13
②⑥④⑨ |①②③④|
⑩⑪⑫⑧ |⑤⑥⑦⑧|
①⑤③⑦ |⑨-⑩⑪|
口⑭⑬口 |⑫-⑬⑭|
14
口口口④ |①---|
口口口③ |②---|
口③①口 |③---|
①口口② |④---|
15
①③①④ |①---|
①④⑤③ |②---|
⑤口口口 |③--④|
口口口② |--⑤-|
16
口口口③ |①---|
口口口口 |②---|
口口口① |----|
口①口② |③---|
17
口口口口 |①②③④|
③口口② |⑤⑥⑦⑧|
⑦①④⑧
⑤口口⑥

口⑪⑫⑬
口⑨⑩口
口⑭口口 |⑨⑩⑪⑫|
口⑮口口 |⑬-⑭⑮|
18
口③口④ |①---|
口口口① |②---|
③口口口 |③---|
口口①② |④---|
19
口口①口 |①---|
口口①口 |②---|
口口口①
口口口②

③③口④
口口⑤③
口④口口 |③--④|
⑤口口口 |--⑤-|
20
⑥⑦①口 |①②③④|
①②⑨口 |⑤-⑥⑦|
③⑩⑤⑧ |--⑧⑨|
口④口⑪ |⑩-⑪-|
21
④⑤⑥⑫ |①②③-|
口口⑪口 |④⑤⑥-|
⑦⑧⑨⑩ |⑦⑧⑨⑩|
①②③口 |⑪-⑫-|
22
口⑥⑦⑨ |①②③-|
④①口⑤ |④⑤-⑥|
⑧口⑨⑦ |⑦-⑧-|
①④③② |⑨---|
23
口⑥⑦⑨ |①②③-|
④①口⑤ |④⑤-⑥|
⑧口⑨⑦ |⑦-⑧-|
①④③② |⑨---|
24
口⑥⑦⑨ |①②③-|
④①⑩⑤ |④⑤-⑥|
⑧口⑨⑦ |⑦-⑧-|
①④③② |⑨-⑩-|
25
口⑥⑦⑨ |①②③-|
④①⑩⑤ |④⑤-⑥|
⑧口⑨⑦ |⑦-⑧-|
①④③② |⑨-⑩-|
26
④⑦⑧⑪ |①②③④|
⑤①⑫⑥ |⑤⑥-⑦|
⑨⑩⑪⑧ |⑧-⑨⑩|
①⑤③② |⑪-⑫-|
27
④⑦⑧⑪ |①②③④|
⑤①⑫⑥ |⑤⑥-⑦|
⑨⑩⑪⑧ |⑧-⑨⑩|
①⑤③② |⑪-⑫-|
28
④口口⑧ |①-②-|
③口口⑦ |③-④-|
⑥口口⑤ |⑤-⑥-|
①口口② |⑦-⑧-|
29
⑨①⑤⑬ |①②③④|
⑩②⑥⑭ |⑤⑥⑦⑧|
⑪③⑦⑮ |⑨⑩⑪⑫|
⑫④⑧⑯ |⑬⑭⑮⑯|
30
口口口口 |①---|
口①口口 |----|
口口口口 |----|
口①口口 |----|
31
口口①口 |①---|
口口口口 |----|
口口①口 |----|
口口口口 |----|
32
①口口口 |①---|
口口口口 |----|
①口口口 |----|
口口口口 |----|
33
口口口① |①---|
口③②口 |----|
口口口① |②---|
③②口口 |③---|
34
口①口口 |①---|
口口③② |----|
①口口口 |②---|
口③②口 |③---|
35
④①②④ |①---|
①③口③ |②---|
①②④② |③---|
口口③口 |④---|
36
口口口口 |①---|
口口①口 |----|
口口口口 |----|
①口口① |----|
37
口口口口 |----|
口口口口 |----|
口口口口 |①---|
口①①口 |----|
38
②口口口 |①---|
⑤③口口 |②-③-|
口口①口 |--④-|
①④口① |⑤---|
39
②口口口 |①---|
⑤③①口 |②-③-|
口口口① |--④-|
①④口口 |⑤---|
40
②口口口 |①---|
⑤③口① |②-③-|
口口①口 |--④-|
①④口口 |⑤---|
41
②口口① |①---|
⑥③①口 |②-③-|
口口⑥⑥ |④-⑤-|
①⑤④④ |⑥---|
42
②口口口 |①---|
⑥③①① |②-③-|
口口⑥⑥ |④-⑤-|
①⑤④④ |⑥---|
43
②口②① |①---|
⑥③①② |②-③-|
口口口口 |④-⑤-|
①⑤④④ |⑥---|
44
口①口① |①---|
口口①口 |----|
口①口① |----|
口口口口 |----|
45
⑨⑤口⑧ |①②③④|
①⑬⑬④ |⑤⑥⑦⑧|
⑪⑦②⑩ |⑨⑩⑪⑫|
③口⑫⑥ |⑬---|
46
⑤口②口 |①-②-|
①口⑥口 |③-④-|
⑦口④口 |⑤-⑥-|
③口⑧口 |⑦-⑧-|
47
口⑤②口 |①-②-|
①⑦口口 |③-④-|
口⑥④口 |⑤-⑥-|
③⑦口口 |⑦---|
48
口口⑧① |①-②-|
口口⑦② |③-④-|
口口⑥③ |⑤-⑥-|
口口⑤④ |⑦-⑧-|
49
口口口① |①-②-|
口口口② |③-④-|
口口⑦③ |⑤-⑥-|
⑦⑥⑤④ |⑦---|
50
口②口⑤ |①-②-|
口⑥口① |③-④-|
口④口⑦ |⑤-⑥-|
口⑧口③ |⑦-⑧-|
51
口②⑤口 |①-②-|
口口⑦① |③-④-|
口④⑥口 |⑤-⑥-|
口口⑦③ |⑦---|
52
①口口⑤ |①-②-|
⑥口口② |③-④-|
③口口⑦ |⑤-⑥-|
⑧口口④ |⑦-⑧-|
53
口④⑤口 |①-②-|
口⑤③口 |③-④-|
口②口口 |⑤---|
口口①口 |----|
54
口口③口 |①---|
①③②① |----|
口口口口 |--②-|
①口口① |③---|
55
②口口口 |①---|
口口口① |----|
②口口口 |②---|
口口口① |----|
56
口①②① |①---|
②口口③ |----|
口③④口 |②--③|
④口口口 |--④-|
57
口口②② |①---|
口口口口 |----|
①口口口 |②---|
口口①口 |----|
58
①①口口 |①---|
口口口口 |----|
口口口口 |②---|
口②②口 |----|
59
口口口② |①---|
①口口口 |----|
口口口② |②---|
①口口口 |----|
60
①②①口 |①---|
③口口② |----|
口④③口 |②--③|
口口口④ |--④-|
61
口口口口 |①---|
口口口口 |----|
口口口① |----|
口①口口 |----|
62
口②口② |①---|
①口口① |----|
①口口① |----|
口②口② |②---|
63
②口③口 |①---|
口口①③ |②---|
③口口① |③---|
①口口④ |④---|
64
②①③① |①---|
①④⑤④ |②---|
口口口③ |③--④|
口⑤口口 |--⑤-|
65
②口口口 |①---|
口口口口 |②---|
①口口口 |----|
③口①口 |③---|
66
口②口① |①-②③|
⑦口③口 |④⑤⑥⑦|
口⑥口④
口口⑤口

⑧口⑭⑬
口⑨口口
⑫口⑩口 |⑧⑨⑩⑪|
口⑪口口 |⑫-⑬⑭|
67
③①口④ |①---|
口口③① |②---|
口口口口 |③---|
②口口口 |④---|
68
口①③口 |①---|
①④口① |②---|
⑤口⑤③ |③--④|
②口④口 |--⑤-|
69
①⑤⑦① |①②③④|
④口②⑥ |⑤-⑥⑦|
口③口口 |--⑧⑨|
⑪⑧⑨⑩ |⑩-⑪-|
70
⑨④⑥② |①②③④|
⑧⑫⑪⑩ |⑤⑥⑦⑧|
⑦③⑤① |⑨-⑩⑪|
口⑬⑭口 |⑫-⑬⑭|
71
④口口口 |①---|
③口口口 |②---|
口①③口 |③---|
②口口① |④---|
72
④①③① |①---|
③⑤④① |②---|
口口口⑤ |③--④|
②口口口 |--⑤-|
73
③口口口 |①---|
口口口口 |②---|
①口口口 |----|
②口①口 |③---|
74
口口口口 |①②③④|
②口口③ |⑤⑥⑦⑧|
⑧④①⑦
⑥口口⑤

⑬⑫⑪口
口⑩⑨口
口口⑭口 |⑨⑩⑪⑫|
口口⑮口 |⑬-⑭⑮|
75
④口③口 |①---|
①口口口 |②---|
口口口③ |③---|
②①口口 |④---|
76
口①口口 |①---|
口①口口 |②---|
①口口口
②口口口

④口③③
③⑤口口
口口④口 |③--④|
口口口⑤ |--⑤-|
77
口①⑦⑥ |①②③④|
口⑨②① |⑤-⑥⑦|
⑧⑤⑩③ |--⑧⑨|
⑪口④口 |⑩-⑪-|
78
⑫⑥⑤④ |①②③-|
口⑪口口 |④⑤⑥-|
⑩⑨⑧⑦ |⑦⑧⑨⑩|
口③②① |⑪-⑫-|
79
⑨⑦⑥口 |①②③-|
⑤口①④ |④⑤-⑥|
⑦⑨口⑧ |⑦-⑧-|
②③④① |⑨---|
80
⑨⑦⑥口 |①②③-|
⑤口①④ |④⑤-⑥|
⑦⑨口⑧ |⑦-⑧-|
②③④① |⑨---|
81
⑨⑦⑥口 |①②③-|
⑤⑩①④ |④⑤-⑥|
⑦⑨口⑧ |⑦-⑧-|
②③④① |⑨-⑩-|
82
⑨⑦⑥口 |①②③-|
⑤⑩①④ |④⑤-⑥|
⑦⑨口⑧ |⑦-⑧-|
②③④① |⑨-⑩-|
83
⑪⑧⑦④ |①②③④|
⑥⑫①⑤ |⑤⑥-⑦|
⑧⑪⑩⑨ |⑧-⑨⑩|
②③⑤① |⑪-⑫-|
84
⑪⑧⑦④ |①②③④|
⑥⑫①⑤ |⑤⑥-⑦|
⑧⑪⑩⑨ |⑧-⑨⑩|
②③⑤① |⑪-⑫-|
85
⑧口口④ |①-②-|
⑦口口③ |③-④-|
⑤口口⑥ |⑤-⑥-|
②口口① |⑦-⑧-|
86
⑬⑤①⑨ |①②③④|
⑭⑥②⑩ |⑤⑥⑦⑧|
⑮⑦③⑪ |⑨⑩⑪⑫|
⑯⑧④⑫ |⑬⑭⑮⑯|

不確定度: 0

最終更新:2017年05月12日 00:08