CHERNOBOG
漆黒のEBONY

ADVANCED

Level: 9
BPM: 200
Notes: 761

1
口口口口 |----|
口①①口 |----|
口口口口 |----|
口口口口 |①---|
2
口口口口 |----|
口口口口 |----|
口口口口 |----|
口口口口 |----|
3
①①①① |①---|
口口口口 |----|
口口口口 |----|
口口口口 |----|
4
口口口口 |----|
口口口口 |----|
口②①口 |----|
口④③口 |①②③④|
5
口①①口 |①---|
口口口口 |----|
口③②口 |----|
口⑤④口 |②③④⑤|
6
口①①口 |①---|
口口口口 |----|
口③②口 |----|
口⑤④口 |②③④⑤|
7
②①①② |①---|
口口口口 |----|
口口口口 |②---|
口口口口 |----|
8
⑥③③⑥ |①---②-|
口口口口 |--③---|
②④⑤① |④---⑤-|
④②①⑤ |--⑥---|
9
口口口口 |①---|
口①①口 |----|
口口口口 |②---|
口②②口 |----|
10
⑧口⑪⑦ |①②③④|
口④③⑪ |⑤⑥⑦⑧|
⑩⑥⑤⑨ |⑨---⑩-|
②⑩⑨① |--⑪---|
11
口①口口 |①---|
①口口口 |----|
口口口口 |----|
口口口口 |----|
12
口口口口 |----|
口口口口 |----|
口口口口 |----|
口口口口 |----|
13
口口①② |①---|
口口④④ |②---|
口口②① |③---|
口口③③ |④---|
14
②①口口 |①---|
④④口口 |②---|
①②口口 |③---|
③③口口 |④---|
15
口口①② |①---|
口口④④ |②---|
口口②① |③---|
口口③③ |④---|
16
②①口口 |①---|
④④口口 |②---|
①②口口 |③---|
③③口口 |④---|
17
口①口② |①---|
口④④口 |②---|
口②口① |③---|
口③③口 |④---|
18
①口②口 |①---|
口④④口 |②---|
②口①口 |③---|
口③③口 |④---|
19
②④③① |①---|
口口口口 |②---|
口口口口 |③---|
①③④② |④---|
20
③口口② |①---|
①④④① |②---|
①口口① |③---|
②口口③ |④---|
21
口口①③ |①-②-|
④⑧⑦⑦ |③-④-|
②口③① |⑤-⑥-|
⑥口⑤⑤ |⑦-⑧-|
22
③①口口 |①-②-|
⑦⑦⑧口 |③-④-|
①③④② |⑤-⑥-|
⑤⑤口⑥ |⑦-⑧-|
23
④口①③ |①-②-|
口⑧⑦⑦ |③-④-|
口②③① |⑤-⑥-|
⑥口⑤⑤ |⑦-⑧-|
24
③①④口 |①-②-|
⑦⑦口口 |③-④-|
①③⑧② |⑤-⑥-|
⑤⑤口⑥ |⑦-⑧-|
25
口①口③ |①-②-|
口口口④ |③-④-|
②③口①
口口口口

口口口口
口⑦⑦口
口口口⑧ |⑤-⑥-|
⑥⑤⑤口 |⑦-⑧-|
26
①口③口 |①-②-|
②⑦⑦④ |③-④-|
③⑥①⑧ |⑤-⑥-|
口⑤⑤口 |⑦-⑧-|
27
③⑦⑤① |①-②-|
②⑧⑥口 |③-④-|
口口④口 |⑤-⑥-|
①⑤⑦③ |⑦-⑧-|
28
⑤口口③ |①-②-|
①⑥⑥① |③-④-|
①②④① |⑤---|
③口口⑤ |⑥---|
29
口⑧口④ |①-②-|
口⑦口③ |③-④-|
口⑤⑥口 |⑤-⑥-|
口②①口 |⑦-⑧-|
30
④口⑧口 |①-②-|
③口⑦口 |③-④-|
口⑥⑤口 |⑤-⑥-|
①②口口 |⑦-⑧-|
31
⑧口口④ |①-②-|
⑦口口③ |③-④-|
口⑤⑥口 |⑤-⑥-|
口口②① |⑦-⑧-|
32
口④口口 |①-②-|
口③⑤⑤ |③-④-|
口口⑥⑥ |⑤-⑥-|
①②口口 |----|
33
④口⑧口 |①-②-|
③口⑦口 |③-④-|
口⑥⑤口 |⑤-⑥-|
口①②口 |⑦-⑧-|
34
⑧口口④ |①-②-|
⑦口口③ |③-④-|
口口口口 |⑤-⑥-|
⑤⑥②① |⑦-⑧-|
35
口②①口 |①-②-|
口⑥⑤口 |③-④-|
口④③口 |⑤-⑥-|
口⑧⑦口 |⑦-⑧-|
36
②⑩⑨① |①②③④|
④⑫⑪③ |⑤⑥⑦⑧|
⑥⑭⑬⑤ |⑨⑩⑪⑫|
⑧⑯⑮⑦ |⑬⑭⑮⑯|
37
①口②① |①---|
口口口② |----|
口口口口 |②---|
口口口口 |----|
38
口②口口 |①---|
②口口口 |----|
口口口口 |②---|
口①①口 |----|
39
口④③口 |①---②-|
④口口③ |--③---|
②⑥⑥① |④---⑤-|
⑤②①⑤ |--⑥---|
40
①口口① |①---|
口②②口 |----|
口口口口 |②---|
口口口口 |----|
41
口口②口 |①---|
口口口② |----|
口①①口 |②---|
口口口口 |----|
42
口②口口 |①---|
②口口口 |----|
口口口口 |②---|
口①①口 |----|
43
⑯⑧⑦⑮ |①②③④|
⑭⑥⑤⑬ |⑤⑥⑦⑧|
⑫④③⑪ |⑨⑩⑪⑫|
⑩②①⑨ |⑬⑭⑮⑯|
44
口口口口 |①---|
口口口口 |----|
口口口口 |----|
口①①口 |----|
45
⑦口⑥③ |①-②-|
口⑦④口 |③-④-|
①口②① |⑤-⑥-|
⑤③⑧⑤ |⑦-⑧-|
46
口④⑧④ |①-②-|
⑦口⑦① |③-④-|
①⑤⑥② |⑤-⑥-|
⑤③口口 |⑦-⑧-|
47
①口⑨⑤ |①-②③|
⑧口口① |④-⑤-|
①口⑥⑦ |⑥-⑦-|
⑥④③② |⑧-⑨-|
48
④口口口 |①-②-|
口①③口 |③-④-|
①口口口
口③口②

口⑩⑨口
口口口⑤
⑫⑧⑪口 |⑤⑥⑦⑧|
⑥口⑦口 |⑨⑩⑪⑫|
49
⑦口⑥② |①-②-|
③⑦④口 |③-④-|
口口口① |⑤-⑥-|
⑤③⑧⑤ |⑦-⑧-|
50
口④⑦④ |①-②-|
⑦口⑧① |③-④-|
①⑤⑥② |⑤-⑥-|
⑤③口口 |⑦-⑧-|
51
①⑤口④ |①-②-|
⑦③口① |③-④-|
①口⑦⑧ |⑤-⑥-|
⑤③⑥② |⑦-⑧-|
52
②口口口 |①-②-|
口口②① |----|
①②口口 |③---|
口③口② |----|
53
口⑧④口 |①-②-③-|
④口口⑧ |④-----|
⑤③⑦① |⑤-⑥-⑦-|
口⑥②口 |⑧-----|
54
口⑧④口 |①-②-③-|
④口口⑧ |④-----|
⑤③⑦① |⑤-⑥-⑦-|
口⑥②口 |⑧-----|
55
⑦口口③ |①-②-③-|
口②⑥口 |④-----|
⑤口口① |⑤-⑥-⑦-|
④⑧④⑧ |⑧-----|
56
⑦口口③ |①-②-③-|
口②⑥口 |④-----|
⑤口口① |⑤-⑥-⑦-|
④⑧④⑧ |⑧-----|
57
口①③⑤ |①-②-|
口口口口 |③-④-|
口②④⑥ |⑤-⑥-|
口⑦⑧⑨ |⑦⑧⑨-|
58
③①口⑪ |①-②-|
⑦⑥⑤⑩ |③-④-|
④②口⑨ |⑤⑥⑦-|
口口口⑧ |⑧⑨⑩⑪|
59
⑤③①口 |①-②-|
口口口口 |③-④-|
⑥④②口 |⑤-⑥-|
⑨⑧⑦口 |⑦⑧⑨-|
60
⑧⑦⑥⑤ |①②③④|
④③②① |⑤⑥⑦⑧|
⑫⑪⑩⑨ |⑨⑩⑪⑫|
⑯⑮⑭⑬ |⑬⑭⑮⑯|
61
口口口② |①---|
口①①口 |----|
口②口口 |②---|
口口口口 |----|
62
口口口② |①---|
②口口口 |----|
①口口口 |②---|
口口口① |----|
63
口口口② |①---|
口①口口 |----|
口②口口 |②---|
口口口① |----|
64
口口口② |①---|
②口口口 |----|
①口口口 |②---|
口口口① |----|
65
口口⑤④ |①---|
口①口③ |②---|
口③口② |③---|
口口口① |④-⑤-|
66
口口⑤④ |①---|
③口口③ |②---|
①口口② |③---|
口口口① |④-⑤-|
67
口口⑤④ |①---|
口①口③ |②---|
口③口② |③---|
口口口① |④-⑤-|
68
口口⑥⑤ |①---|
③口④③ |②---|
①口口② |③-④-|
口口口① |⑤-⑥-|
69
口口⑧⑦ |①-②-|
口口⑥⑤ |③-④-|
口⑤④③ |⑤-⑥-|
①口②① |⑦-⑧-|
70
口⑤⑧⑦ |①-②-|
①口⑥⑤ |③-④-|
口口④③ |⑤-⑥-|
口口②① |⑦-⑧-|
71
口口⑧⑦ |①-②-|
口口⑥⑤ |③-④-|
⑤口④③ |⑤-⑥-|
口①②① |⑦-⑧-|
72
⑤口⑧⑦ |①-②-|
口①⑥⑤ |③-④-|
口口④③ |⑤-⑥-|
口口②① |⑦-⑧-|
73
口⑦⑧⑦ |①-②-|
口⑤⑥⑤ |③-④-|
口③④③ |⑤-⑥-|
口①②① |⑦-⑧-|
74
⑦口⑧⑦ |①-②-|
⑤口⑥⑤ |③-④-|
③口④③ |⑤-⑥-|
①口②① |⑦-⑧-|
75
⑧⑦⑧⑦ |①-②-|
⑥⑤⑥⑤ |③-④-|
④③④③ |⑤-⑥-|
②①②① |⑦-⑧-|
76
⑬⑭⑮⑯ |①②③④|
⑨⑩⑪⑫ |⑤⑥⑦⑧|
⑤⑥⑦⑧ |⑨⑩⑪⑫|
①②③④ |⑬⑭⑮⑯|
77
口口口口 |①---|
口口口口 |----|
口口口口 |----|
口①①口 |----|
78
口口口口 |----|
口口口口 |----|
口②①口 |----|
口④③口 |①②③④|
79
口①①口 |①---|
口口口口 |----|
口③②口 |----|
口⑤④口 |②③④⑤|
80
口①①口 |①---|
口口口口 |----|
口③②口 |----|
口⑤④口 |②③④⑤|
81
②①①② |①---|
口口口口 |----|
口口口口 |②---|
口口口口 |----|
82
⑥口③口 |①---②-|
口⑥口③ |--③---|
②④⑤① |④---⑤-|
④②①⑤ |--⑥---|
83
⑥②③口 |①---②-|
②⑥口③ |--③---|
口④⑤① |④---⑤-|
④口①⑤ |--⑥---|
84
⑥②③⑤ |①---②-|
②⑥⑤③ |--③---|
口④口① |④---⑤-|
④口①口 |--⑥---|
85
⑦⑧口口 |①-②-|
口口⑥⑤ |③-④-|
③④口口 |⑤-⑥-|
口口②① |⑦-⑧-|
86
口口⑧⑦ |①-②-|
⑤⑥口口 |③-④-|
口口④③ |⑤-⑥-|
①②口口 |⑦-⑧-|
87
⑧口口⑦ |①-②-|
④口口③ |③-④-|
⑥口口⑤ |⑤-⑥-|
②口口① |⑦-⑧-|
88
⑯⑧⑦⑮ |①②③④|
⑭⑥⑤⑬ |⑤⑥⑦⑧|
⑫④③⑪ |⑨⑩⑪⑫|
⑩②①⑨ |⑬⑭⑮⑯|
89
口口口口 |①---|
口口口口 |----|
口口口口 |----|
口①①口 |----|

不確定度: 0

最終更新:2017年08月16日 00:42