CHERNOBOG
漆黒のEBONY

EXTREME

Level: 10
BPM: 200
Notes: 916

1
口口口口 |----|
口①①口 |----|
口口口口 |----|
口口口口 |①---|
2
口口口口 |----|
口口口口 |----|
口口口口 |----|
口口口口 |----|
3
①⑤④⑧ |①-②-|
②⑥③⑦ |③-④-|
①口口口 |⑤-⑥-|
口口口口 |⑦-⑧-|
4
①⑤④⑨ |①-②-|
②⑥③⑦ |③-④-|
口口口口 |⑤-⑥-|
⑩⑨⑧⑦ |⑦⑧⑨⑩|
5
①⑤④⑨ |①-②-|
②⑥③⑦ |③-④-|
①口口口 |⑤-⑥-|
⑩⑨⑧⑦ |⑦⑧⑨⑩|
6
①⑤④⑨ |①-②-|
②⑥③⑦ |③-④-|
①口口口 |⑤-⑥-|
⑩⑨⑧⑦ |⑦⑧⑨⑩|
7
①⑤④⑧ |①-②-|
②⑥③⑦ |③-④-|
①口⑤口 |⑤-⑥-|
口口口口 |⑦-⑧-|
8
②④口口 |①---②-|
③口②⑥ |--③---|
⑤③口⑥ |④---⑤-|
④①⑤① |--⑥---|
9
口口口① |①---|
口口口口 |----|
口口口口 |②---|
口②口① |----|
10
⑩口①⑤ |①②③④|
④⑨⑨⑪ |⑤⑥⑦⑧|
⑪②口③ |⑨---⑩-|
⑥⑧⑩⑦ |--⑪---|
11
口①①口 |①---|
④口口口 |②---|
口①①② |③---|
口③口口 |④---|
12
⑧口口⑤ |①-②-|
口④①口 |③-④-|
⑦③②⑥ |⑤⑥⑦⑧|
口口口口 |----|
13
口口⑥⑧ |①-②-|
⑦⑦④② |③-④-|
口口口口 |⑤-⑥-|
⑤⑤③① |⑦-⑧-|
14
⑥口口⑧ |①-②-|
⑦⑦④② |③-④-|
口口口口 |⑤-⑥-|
⑤⑤③① |⑦-⑧-|
15
⑥口口⑧ |①-②-|
⑦⑦④② |③-④-|
口口口口 |⑤-⑥-|
⑤⑤③① |⑦-⑧-|
16
⑥口口口 |①-②-|
⑦⑦④② |③-④-|
口⑧口口 |⑤-⑥-|
⑤⑤③① |⑦-⑧-|
17
⑦⑦④② |①-②-|
⑥口口口 |③-④-|
口⑧口口 |⑤-⑥-|
⑤⑤③① |⑦-⑧-|
18
⑦⑦④② |①-②-|
⑥口口口 |③-④-|
口⑧③口 |⑤-⑥-|
⑤⑤③① |⑦-⑧-|
19
⑦⑦⑧④ |①-②-|
口口⑦③ |③-④-|
口口⑥② |⑤-⑥-|
⑤⑤⑤① |⑦-⑧-|
20
⑩口口⑦ |①②③④|
②⑥口③ |⑤⑥⑦⑧|
④⑨⑨⑤ |⑨---|
口⑧口① |⑩---|
21
⑥口口口 |①-②-|
⑦⑦④② |③-④-|
口⑧⑨口 |⑤-⑥-|
⑤⑤③① |⑦-⑧⑨|
22
⑥口口口 |①-②-|
⑦⑦④② |③-④-|
⑩⑨⑧⑦ |⑤-⑥-|
⑤⑤③① |⑦⑧⑨⑩|
23
⑥口口口 |①-②-|
⑦⑦④② |③-④-|
口⑧⑨口 |⑤-⑥-|
⑤⑤③① |⑦-⑧⑨|
24
⑥口口口 |①-②-|
⑦⑦④② |③-④-|
⑩⑨⑧⑦ |⑤-⑥-|
⑤⑤③① |⑦⑧⑨⑩|
25
⑦⑦口口 |①-②-|
⑥口④② |③-④-|
口⑧⑨口 |⑤-⑥-|
⑤⑤③① |⑦-⑧⑨|
26
⑦⑦④② |①-②-|
⑥口口口 |③-④-|
口口⑧口 |⑤-⑥-|
⑤⑤③① |⑦-⑧-|
27
口口口① |①②③④|
口②口⑤ |⑤⑥⑦⑧|
④⑥口口
⑧口③⑦

口⑫⑬口
⑩⑯⑨口
口口⑮⑪ |⑨⑩⑪⑫|
口⑭口口 |⑬⑭⑮⑯|
28
①口口① |①---|
③口口② |②---|
④口口④ |③---|
③口口② |④---|
29
口⑧口④ |①-②-|
口⑦口③ |③-④-|
口⑤⑥口 |⑤-⑥-|
口②①口 |⑦-⑧-|
30
④口口口 |①-②-|
③口口口 |③-④-|
口口口口
②①口口

口口⑦口
口⑧口口
⑥口⑨⑤ |⑤-⑥-|
口⑩口口 |⑦⑧⑨⑩|
31
口口口④ |①-②-|
口口口③ |③-④-|
口口口口
口口①②

口⑦口口
口口⑧口
⑤⑨口⑥ |⑤-⑥-|
口口⑩口 |⑦⑧⑨⑩|
32
④口口口 |①-②-|
③口口口 |③-④-|
⑥口口⑤ |⑤-⑥-|
②①口口 |----|
33
口⑧口④ |①-②-|
口⑦口③ |③-④-|
⑤⑤⑥口 |⑤-⑥-|
口②①① |⑦-⑧-|
34
⑤口②⑥ |①--②|
③口④口 |--③-|
⑥④口⑤ |④--⑤|
②①①③ |--⑥-|
35
⑤③②⑥ |①--②|
③①④① |--③-|
⑥④②⑤ |④--⑤|
②④①③ |--⑥-|
36
⑬⑨④⑯ |①②③④|
⑤①⑫⑧ |⑤⑥⑦⑧|
⑮⑪⑩⑭ |⑨⑩⑪⑫|
③⑦②⑥ |⑬⑭⑮⑯|
37
口口口口 |①---|
口②口② |----|
口口口口 |②---|
①口①口 |----|
38
②口②口 |①---|
口口口口 |----|
口①口① |②---|
口口口口 |----|
39
口②口③ |①---②-|
⑥④⑤④ |--③---|
⑥口⑤口 |④---⑤-|
①②①③ |--⑥---|
40
口口口口 |①---|
口口口口 |----|
口①口①
口口口口

②⑧②口
口④③口
⑥口⑦⑨ |②③④⑤|
口口口⑤ |⑥⑦⑧⑨|
41
口口口口 |①---|
口②口② |----|
口口口口 |②---|
①口①口 |----|
42
②口②口 |①---|
口③口口 |----|
口①④① |②③④⑤|
口⑤口口 |----|
43
⑪⑧⑩① |①②③④|
④⑮⑭⑤ |⑤⑥⑦⑧|
⑨⑥⑯⑫ |⑨⑩⑪⑫|
②⑬③⑦ |⑬⑭⑮⑯|
44
口口口口 |①---|
口口口口 |----|
口口口口 |----|
①口①口 |----|
45
④①口③ |①-②-|
⑥口⑥口 |③-④-|
⑦⑤口⑧ |⑤-⑥-|
③②①口 |⑦-⑧-|
46
⑦口①④ |①-②-|
⑤②⑥⑧ |③-④-|
⑦口口口 |⑤-⑥-|
④①②③ |⑦-⑧-|
47
⑧①④⑩ |①-②③|
⑤⑥⑦口 |④-⑤⑥|
⑨④③② |⑦-⑧-|
口⑦①⑧ |⑨-⑩-|
48
口②③口 |①-②-|
⑫⑧⑤⑨ |③-④-|
⑩⑥⑦⑪ |⑤⑥⑦⑧|
④口①口 |⑨⑩⑪⑫|
49
④①口③ |①-②-|
口口⑤⑥ |③-④-|
⑦⑥⑧口 |⑤-⑥-|
③②①口 |⑦-⑧-|
50
⑤口①④ |①-②-|
⑨②⑦口 |③-④-|
⑩口⑧⑥ |⑤-⑥-|
④①②③ |⑦⑧⑨⑩|
51
口①口④ |①-②-|
⑨⑤⑦口 |③-④-|
⑩口⑧⑥ |⑤-⑥-|
③②①⑤ |⑦⑧⑨⑩|
52
口①②口 |①-②-|
口③口口 |----|
口口口口 |③---|
口②①口 |----|
53
④⑧④⑧ |①-②-③-|
口⑥②口 |④-----|
⑤③⑦① |⑤-⑥-⑦-|
口口口口 |⑧-----|
54
口⑧④口 |①-②-③-|
①⑦③⑤ |④-----|
⑧②⑥④ |⑤-⑥-⑦-|
口口口口 |⑧-----|
55
⑧口口④ |①-②-③-|
①⑦③⑤ |④-----|
口②⑥口 |⑤-⑥-⑦-|
口⑧④口 |⑧-----|
56
口④⑩口 |①-②-③-|
⑤⑧②⑥ |④-⑤-⑥-|
⑦③⑨① |⑦-⑧-⑨-|
④口口⑩ |⑩-----|
57
①口口⑨ |①-②-|
③⑥⑧⑦ |③-④-|
⑤口口口 |⑤-⑥-|
口④②口 |⑦⑧⑨-|
58
①口⑪⑩ |①-②-|
③口⑨⑧ |③-④-|
口口⑥⑤ |⑤⑥⑦-|
口④②⑦ |⑧⑨⑩⑪|
59
①口口⑨ |①-②-|
③⑥⑧⑦ |③-④-|
⑤口口口 |⑤-⑥-|
口④②口 |⑦⑧⑨-|
60
②口③口 |①②③④|
④口口口 |⑤⑥⑦⑧|
口口⑤⑦
⑧⑥①口

⑯⑫口⑬
口口口⑪
⑭⑩口口 |⑨⑩⑪⑫|
口口⑮⑨ |⑬⑭⑮⑯|
61
口口口口 |①-②-|
口①①③ |----|
口③②口 |③---|
口口口口 |----|
62
口口③口 |①-②-|
③口口④ |----|
①口⑤口 |③---④-|
口口②① |--⑤---|
63
口口口③ |①-②-|
口①口口 |----|
口③口口 |③---|
口口②① |----|
64
口⑦⑤③ |①-②-|
③⑧⑥④ |----|
①口口口 |③④--⑤⑥|
口口②① |--⑦⑧--|
65
口口⑤④ |①---|
口口口③ |②---|
口③口② |③---|
口口口① |④-⑤-|
66
口口⑤④ |①---|
③口口③ |②---|
①口口② |③---|
口口口① |④-⑤-|
67
口口⑤④ |①---|
口①口③ |②---|
口③口② |③---|
口口口① |④-⑤-|
68
⑩口口⑧ |①②③④|
⑨⑥⑤⑦ |⑤-⑥-|
口口口口 |⑦-⑧-|
④③②① |⑨-⑩-|
69
口口⑧口 |①-②-|
口⑤⑤④ |③-④-|
③口⑥① |⑤-⑥-|
②⑦口① |⑦-⑧-|
70
①口口口 |①-②-|
①口口④ |③-④-|
③口口②
口口口口

⑩⑨⑧⑦
口口⑥口
口⑤⑤口 |⑤-⑥-|
口口口口 |⑦⑧⑨⑩|
71
口口口口 |①-②-|
②口口③ |③-④-|
④口口①
口口口①

口口口口
口⑤⑤口
口⑥口口 |⑤-⑥-|
⑦⑧⑨⑩ |⑦⑧⑨⑩|
72
①口口口 |①-②-|
①④口口 |③-④-|
③口口②
口口口口

⑩⑨⑧⑦
口口⑥口
口口⑤口 |⑤-⑥-|
口口口口 |⑦⑧⑨⑩|
73
⑫⑪⑩⑨ |①-②-|
⑧⑦⑦② |③④⑤⑥|
③④⑤⑥ |⑦-⑧-|
⑨①①③ |⑨⑩⑪⑫|
74
⑫⑪⑩⑨ |①-②-|
⑧⑦⑦② |③④⑤⑥|
③④⑤⑥ |⑦-⑧-|
⑨①①③ |⑨⑩⑪⑫|
75
口口口⑧ |①-②-|
口④口① |③-④-|
③⑥口⑦ |⑤-⑥-|
口⑤②口 |⑦-⑧-|
76
①⑦⑧⑭ |①②③④|
⑤⑪⑥⑩ |⑤⑥⑦⑧|
③⑬④⑫ |⑨⑩⑪⑫|
⑨⑮②⑯ |⑬⑭⑮⑯|
77
①⑤④⑧ |①-②-|
②⑥③⑦ |③-④-|
①口口口 |⑤-⑥-|
口口口口 |⑦-⑧-|
78
①⑤④⑨ |①-②-|
②⑥③⑦ |③-④-|
口口口口 |⑤-⑥-|
⑩⑨⑧⑦ |⑦⑧⑨⑩|
79
①⑤④⑨ |①-②-|
②⑥③⑦ |③-④-|
①口口口 |⑤-⑥-|
⑩⑨⑧⑦ |⑦⑧⑨⑩|
80
①⑤④⑨ |①-②-|
②⑥③⑦ |③-④-|
①口口口 |⑤-⑥-|
⑩⑨⑧⑦ |⑦⑧⑨⑩|
81
①⑤④⑧ |①-②-|
②⑥③⑦ |③-④-|
①口⑤口 |⑤-⑥-|
口口口口 |⑦-⑧-|
82
②④口口 |①---②-|
③口②⑥ |--③---|
⑤③口⑥ |④---⑤-|
④①⑤① |--⑥---|
83
④口③① |①---②-|
口②⑤⑥ |--③---|
⑥⑤②口 |④---⑤-|
④③口① |--⑥---|
84
④口③① |①---②-|
⑤②⑥口 |--③---|
口⑥②⑤ |④---⑤-|
④③口① |--⑥---|
85
⑦⑪⑧① |①-②-③-|
⑨②口⑤ |④-⑤-⑥-|
④⑫⑥⑩ |⑦-⑧-⑨-|
⑦口③① |⑩-⑪-⑫-|
86
⑦⑪口① |①-②-③-|
⑨②⑧⑤ |④-⑤-⑥-|
④⑫⑥⑩ |⑦-⑧-⑨-|
⑦口③① |⑩-⑪-⑫-|
87
⑦⑪③① |①-②-③-|
⑨②⑧⑤ |④-⑤-⑥-|
④⑫⑥口 |⑦-⑧-⑨-|
⑦口⑩① |⑩-⑪-⑫-|
88
⑧口⑤① |①②③④|
口②口口 |⑤⑥⑦⑧|
⑥口口③
口④口⑦

口⑭口⑮
⑫⑯⑪⑨
口口口口 |⑨⑩⑪⑫|
⑩口⑬口 |⑬⑭⑮⑯|
89
口口口口 |①---|
口口口口 |----|
口①①口 |----|
口口口口 |----|

不確定度: 0

最終更新:2017年08月16日 00:41