AREA 51
96

BASIC

Level: 6
BPM: 188
Notes: 409

1
口口口口 |----|
口①口口 |----|
口口口口 |----|
口口口口 |--①-|
2
口口口口 |--①-|
③口①③ |--②-|
口④口口 |--③-|
②口口② |--④-|
3
③口口③ |--①-|
口④口口 |--②-|
②口①② |--③-|
口口口口 |--④-|
4
口口口口 |--①-|
②口①② |--②-|
口④口口 |--③-|
③口口③ |--④-|
5
②口口② |--①-|
口④口口 |--②-|
③口①③ |--③-|
口口口口 |--④-|
6
口口口口 |--①-|
③口①③ |--②-|
口④口口 |--③-|
②口口② |--④-|
7
③口口③ |--①-|
口④口口 |--②-|
②口①② |--③-|
口口口口 |--④-|
8
口口口口 |--①-|
②口①② |--②-|
口④口口 |--③-|
③口口③ |--④-|
9
②口口② |--①-|
口④口口 |--②-|
③口①③ |--③-|
口口口口 |--④-|
10
口口口口 |--①-|
③口①③ |--②-|
口④口口 |--③-|
②口口② |--④-|
11
③口口③ |--①-|
口④口口 |--②-|
②口①② |--③-|
口口口口 |--④-|
12
口口口口 |--①-|
②口①② |--②-|
口④口口 |--③-|
③口口③ |--④-|
13
②口口② |--①-|
口④口口 |--②-|
③口①③ |--③-|
口口口口 |--④-|
14
口口口口 |--①-|
③口①③ |--②-|
口④口口 |--③-|
②口口② |--④-|
15
③口口③ |--①-|
口④口口 |--②-|
②口①② |--③-|
口口口口 |--④-|
16
口口口口 |--①-|
②口①② |--②-|
口④口口 |--③-|
③口口③ |--④-|
17
②口口② |--①-|
口口口口 |--②-|
③口①③ |--③-|
④口口④ |--④-|
18
口口口口 |----|
口①①口 |①---|
口②②口 |②---|
口③③口 |③---|
19
口①②口 |①---|
口口口⑤ |②---|
口③④口 |③---|
口口口口 |④-⑤-|
20
口②②口 |----|
③①①③ |①---|
口口口口 |②---|
口口口口 |--③-|
21
口口口口 |----|
③口口③ |①---|
口①①口 |②---|
口②②口 |--③-|
22
口口口口 |----|
口①①口 |①---|
口②②口 |②---|
口③③口 |③---|
23
口口口口 |①---|
口口口口 |②---|
②口口②
①口口①

口口口口
③口口③
口口口口 |③---|
④口口④ |--④-|
24
口①①口 |----|
②口口② |①---|
口口口口 |②---|
口③③口 |--③-|
25
③口口③ |----|
口②②口 |①---|
口①①口 |②---|
口口口口 |--③-|
26
口口口口 |----|
②①①② |--①-|
口口口口 |----|
口口口口 |--②-|
27
口口口口 |--①-|
口口口口 |--②-|
①口口① |----|
②③③② |--③-|
28
口②②口 |----|
③①①③ |①---|
口口口口 |②---|
口口口口 |--③-|
29
口口口口 |----|
③口口③ |①---|
口①①口 |②---|
口②②口 |--③-|
30
口口口口 |----|
口①①口 |①---|
口②②口 |②---|
口③③口 |③---|
31
口口口口 |①---|
口口口口 |②---|
②口口②
①口口①

口口口口
③口口③
口口口口 |③---|
④口口④ |--④-|
32
口①①口 |----|
②口口② |①---|
口口口口 |②---|
口③③口 |--③-|
33
③口口③ |----|
口②②口 |①---|
口①①口 |②---|
口口口口 |--③-|
34
口口口口 |----|
②①①② |--①-|
口口口口 |----|
口口口口 |--②-|
35
口口口口 |--①-|
口口口口 |--②-|
①口口① |----|
②③③② |--③-|
36
口②③口 |----|
口①①口 |①---|
口④⑤口 |②-③-|
口口口口 |④-⑤-|
37
口口口口 |----|
口③④口 |----|
口口口口 |①-②-|
口①②口 |③-④-|
38
②口口② |----|
口口口口 |----|
口口口口 |①---|
①口口① |--②-|
39
口口口口 |----|
口口口口 |①---|
①口口① |----|
口②②口 |--②-|
40
口②③口 |----|
口①①口 |①---|
口④⑤口 |②-③-|
口口口口 |④-⑤-|
41
口口口口 |----|
口③④口 |----|
口口口口 |①-②-|
口①②口 |③-④-|
42
②口口② |----|
口口口口 |----|
口口口口 |①---|
①口口① |--②-|
43
口口口口 |----|
口口口口 |----|
口口口口 |----|
口①①口 |--①-|
44
口②③口 |----|
口①①口 |①---|
口④⑤口 |②-③-|
口口口口 |④-⑤-|
45
口口口口 |----|
口③④口 |----|
口口口口 |①-②-|
口①②口 |③-④-|
46
②口口② |----|
口口口口 |----|
口口口口 |①---|
①口口① |--②-|
47
口口口口 |----|
口口口口 |①---|
①口口① |----|
口②②口 |--②-|
48
口②③口 |----|
口①①口 |①---|
口④⑤口 |②-③-|
口口口口 |④-⑤-|
49
口口口口 |----|
口③④口 |----|
口口口口 |①-②-|
口①②口 |③-④-|
50
口口口口 |----|
口口口口 |----|
口口口口 |----|
口口口口 |----|
51
口③③口 |①---|
口口口口 |----|
①口口① |②---|
口②②口 |--③-|
52
口②②口 |----|
口口口口 |----|
口口口口 |①---|
口①①口 |--②-|
53
口口口口 |----|
口口口口 |----|
口口口口 |----|
口①①口 |--①-|
54
口①②口 |----|
口③口口 |①---|
口口口口 |②---|
口口口口 |③---|
55
口口口口 |①---|
口口①口 |②---|
口②③口 |③---|
④口口④ |--④-|
56
口口口口 |----|
口①②口 |①---|
③口口③ |②---|
口口口口 |--③-|
57
口①①口 |----|
口口口口 |--①-|
口口口口 |----|
口②②口 |--②-|
58
①口口② |----|
③口口口 |①---|
口口口口 |②---|
口口口口 |③---|
59
口口口口 |①---|
口口口① |②---|
②口口③ |③---|
口④⑤口 |④-⑤-|
60
口①②口 |----|
口③③口 |①---|
口口口口 |②---|
口口口口 |--③-|
61
口②②口 |----|
口口口口 |--①-|
口口口口 |----|
口①①口 |--②-|
62
①口口② |----|
③口口口 |①---|
口口口口 |②---|
口口口口 |③---|
63
口口口口 |①---|
口口口① |②---|
②口口③ |③---|
口④⑤口 |④-⑤-|
64
口口口口 |----|
口①①口 |①---|
口②②口 |②---|
口③③口 |--③-|
65
口②②口 |--①-|
口口口口 |----|
①口口① |----|
口口口口 |--②-|
66
①口口② |----|
③口口口 |①---|
口口口口 |②---|
口口口口 |③---|
67
口口口口 |①---|
口口口① |②---|
②口口③ |③---|
口④⑤口 |④-⑤-|
68
①口口② |----|
③口口口 |①---|
口口口口 |②---|
口口口口 |③---|
69
口口口口 |①---|
口口口① |②---|
②口口③ |③---|
口④⑤口 |④-⑤-|
70
口口口口 |--①-|
③①①③ |--②-|
口④口口 |--③-|
②口口② |--④-|
71
③口口③ |--①-|
口④口口 |--②-|
②口①② |--③-|
口口口口 |--④-|
72
口口口口 |--①-|
②口①② |--②-|
口④口口 |--③-|
③口口③ |--④-|
73
②口口② |--①-|
口④口口 |--②-|
③口①③ |--③-|
口口口口 |--④-|
74
口口口口 |--①-|
③口①③ |--②-|
口④口口 |--③-|
②口口② |--④-|
75
③口口③ |--①-|
口④口口 |--②-|
②口①② |--③-|
口口口口 |--④-|
76
口口口口 |--①-|
②口①② |--②-|
口④口口 |--③-|
③口口③ |--④-|
77
②口口② |--①-|
口④口口 |--②-|
③口①③ |--③-|
口口口口 |--④-|
78
口口口口 |--①-|
③口①③ |--②-|
口④口口 |--③-|
②口口② |--④-|
79
③口口③ |--①-|
口④④口 |--②-|
②口①② |--③-|
口口口口 |--④-|
80
口口口口 |----|
口口口口 |----|
口口口口 |----|
口口口口 |----|
81
口口口口 |----|
口口口口 |----|
口①①口 |----|
口口口口 |--①-|

不確定度: 0

最終更新:2014年12月14日 17:48