見習い天使と星降りの丘
DJ TOTTO
EXTREME
Level: 10
BPM: 174
Notes: 806
1
①口口口 |----|
口口口口 |----|
口口口口 |----|
口口口口 |①---|
2
口⑤①④ |①--②|
⑤③口① |--③-|
②口③⑥ |④---|
④②⑥口 |⑤--⑥|
⑧⑨口口 |--⑦-|
⑨口⑦口 |⑧---|
口⑦口口 |⑨---|
口口口⑧
3
口⑤①④ |①--②|
⑤③口① |--③-|
②口③⑥ |④---|
④②⑥口 |⑤--⑥|
⑧⑨口口 |--⑦-|
⑨口⑦口 |⑧---|
口⑦口口 |⑨---|
口口口⑧
4
口⑤①④ |①--②|
⑤③口① |--③-|
②口③⑥ |④---|
④②⑥口 |⑤--⑥|
⑧⑨口口 |--⑦-|
⑨口⑦口 |⑧---|
口⑦口口 |⑨---|
口口口⑧
5
口⑤①④ |①--②|
⑤③口① |--③-|
②口③⑥ |④---|
④②⑥口 |⑤--⑥|
⑧口口口 |--⑦-|
口⑨⑦口 |⑧---|
口⑦⑨口 |⑨---|
口口口⑧
6
口口③④ |①②③④|
⑤口口⑥ |-⑤-⑥|
⑤口口⑥
①②口口
口口口口
口⑦口口
口⑨⑧口 |-⑦⑧⑨|
⑬⑫⑪⑩ |⑩⑪⑫⑬|
7
①①①① |①---|
口②③口 |--②③|
口口口口
口口口口
⑧口口⑧
口口口④
⑤⑥⑦口 |④⑤⑥⑦|
口⑩⑨口 |⑧-⑨⑩|
8
口口①口 |①---|
口③口③ |②-③-|
⑤口⑤① |④---|
②口口④ |⑤---|
9
①口口② |①---|
口口口口 |②-③④|
口口口口
③④口口
⑪⑫口口
⑦⑧⑥⑤
口口口口 |⑤⑥⑦⑧|
口口⑩⑨ |⑨⑩⑪⑫|
10
口口③③ |①---|
⑤口⑤口 |②-③-|
口②④① |④---|
口口口口 |⑤---|
11
⑪⑫⑥⑤ |①---|
⑦⑧⑩⑨ |②-③④|
③④口口 |⑤⑥⑦⑧|
①口口② |⑨⑩⑪⑫|
12
口口口③ |①---|
⑤口⑤口 |②-③-|
口④③口 |④---|
②口口① |⑤---|
13
⑨口口⑥ |①---|
⑤口④口 |②---|
①⑦口口 |③④⑤⑥|
③口⑧② |⑦⑧⑨-|
14
口⑤①④ |①--②|
⑤③口① |--③-|
②口③⑥ |④---|
④②⑥口 |⑤--⑥|
15
②口口④ |--①-|
口③①口 |②---|
口①③口 |③---|
④⑥⑤② |④-⑤⑥|
16
口口①口 |①---|
口③口③ |②-③-|
②口口①
口口口口
⑤⑥口口
口口口口
口口⑧⑦ |④-⑤⑥|
⑨⑩口④ |⑦⑧⑨⑩|
17
⑩⑪口① |①---|
⑥⑦⑤④ |--②③|
②③口口 |④⑤⑥⑦|
口口⑨⑧ |⑧⑨⑩⑪|
18
口口⑤① |①---|
③口口口 |②-③-|
口②口⑤ |④---|
③口口④ |⑤---|
19
①口口② |①---|
口口口口 |②-③④|
③④口口
口口口口
⑪⑫口口
⑦⑧⑩⑨
口口口口 |⑤⑥⑦⑧|
口口⑥⑤ |⑨⑩⑪⑫|
20
⑥口口① |①---|
口口口口 |②-③④|
口③④口 |⑤---|
口⑤口② |⑥---|
21
口口口① |①---|
口口口口 |②---|
口④口口 |③---|
②口③③ |④---|
22
口⑤①④ |①--②|
⑤③口① |--③-|
②口③⑥ |④---|
④②⑥口 |⑤--⑥|
23
②口口④ |--①-|
口③①口 |②---|
口①③口 |③---|
④口口② |④---|
24
口⑥口口 |①-②-③-|
口④⑤口 |④-⑤-⑥-|
③口口②
口口①口
⑩口口口
口口口⑫
口⑨⑧口 |⑦-⑧-⑨-|
口⑦⑪口 |⑩-⑪-⑫-|
25
口②口③ |①---②-|
口①②口 |--③---|
①口③口
口口口口
④口⑤口
口⑥口口
口④口口 |④-----|
口口口口 |--⑤-⑥-|
26
口⑤口④ |①---②-|
口口⑥口 |--③---|
①⑦②口 |④---⑤-|
口③⑧口 |⑥-⑦-⑧-|
27
①口口② |①-----|
口口③口 |------|
口④口⑥ |②-③-④-|
⑤⑦口口 |⑤-⑥-⑦-|
28
口④口口 |①-②-③-|
口②⑥口 |④-⑤-⑥-|
③口①口
口口口⑤
口口口口
口口口⑩
口⑧⑫口 |⑦-⑧-⑨-|
⑦⑪⑨口 |⑩-⑪-⑫-|
29
③②①口 |①---②-|
口口口口 |--③---|
②③口①
口口口口
口口口口
口⑤④口
口口口⑥ |④---⑤-|
⑤口⑥④ |--⑥---|
30
④口口⑤ |①-②-③-|
口口口口 |④-⑤-⑥-|
①②③⑧ |⑦-----|
⑥口⑨⑦ |--⑧-⑨-|
31
口⑦⑦口 |①-②-③-|
①②③口 |④-⑤-⑥-|
④⑤⑥口 |⑦-----|
口口口口 |------|
32
口⑥口口 |①-②-③-|
⑫④⑤⑩ |④-⑤-⑥-|
③口⑧② |⑦-⑧-⑨-|
⑨⑦①⑪ |⑩-⑪-⑫-|
33
口口口③ |①---②-|
口②口口 |--③---|
②口③①
口口①口
④口⑤口
口⑥口口
口④口口 |④-----|
口口口口 |--⑤-⑥-|
34
口⑤口④ |①---②-|
口口⑥口 |--③---|
①⑦②口 |④---⑤-|
口③⑧口 |⑥-⑦-⑧-|
35
①口口口 |①-----|
口③⑦口 |--②-③-|
⑤口口⑨ |④-⑤-⑥-|
②④⑧⑥ |⑦-⑧-⑨-|
36
口①口口 |①-----|
①口⑥⑤ |--②-③-|
④口口口 |④-----|
②③口口 |--⑤-⑥-|
37
口口口① |①-----|
④⑩口⑦ |②-③-④-|
③⑨口⑥ |⑤-⑥-⑦-|
②⑧口⑤ |⑧-⑨-⑩-|
38
①口口① |①---|
口③口口 |----|
口口②口 |----|
口口口口 |--②③|
39
⑧④①⑤ |①②③④|
口口口③ |⑤⑥⑦⑧|
②口口口
⑥口⑦口
口口口口
⑯口⑭口
⑮⑫⑬⑩ |⑨⑩⑪⑫|
口⑪口⑨ |⑬⑭⑮⑯|
40
口①①② |①---|
口口口② |②-③-|
口口口口
口口③③
⑥⑥口口
⑥④口口
口口④口 |④-⑤-|
⑤⑤口口 |⑥---|
41
口⑧⑦口 |----|
口⑤⑥口 |--①-|
口④口③ |②③④⑤|
口①①② |⑥⑦⑧-|
42
①口口① |①---|
②口口口 |②-③-|
②口口口
③③口口
口口⑥⑥
口④口⑥
口口④口 |④-⑤-|
口口⑤⑤ |⑥---|
43
⑩口口⑧ |----|
⑨⑥④⑦ |--①②|
口⑤③口 |③④⑤⑥|
②口口① |⑦⑧⑨⑩|
44
口①①口 |①---|
口口③口 |②-③-|
②口口③
口②口口
口口⑥口
⑤⑤口⑥
口口⑥口 |④-⑤-|
④口口④ |⑥---|
45
①②⑦⑥ |----|
口⑤⑤口 |①②③④|
⑧口⑦⑥ |⑤-⑥-|
⑧口④③ |⑦-⑧-|
46
①①口口 |--①-|
①⑤②口 |-②--|
口②④口 |③---|
口③③① |--④⑤|
47
⑧④①⑤ |①②③④|
口口口③ |⑤⑥⑦⑧|
②口口口
⑥口⑦口
口口口口
⑯口⑭口
⑮⑫⑬⑩ |⑨⑩⑪⑫|
口⑪口⑨ |⑬⑭⑮⑯|
48
口①①② |①---|
口口口② |②-③-|
口口口口
口口③③
⑥⑥口口
⑥④口口
口口④口 |④-⑤-|
⑤⑤口口 |⑥---|
49
口⑧⑦口 |----|
口⑤⑥口 |--①-|
口④口③ |②③④⑤|
口①①② |⑥⑦⑧-|
50
①口口① |①---|
②口口口 |②-③-|
②口口口
③③口口
口口⑥⑥
口④口⑥
口口④口 |④-⑤-|
口口⑤⑤ |⑥---|
51
⑩口口⑧ |----|
⑨⑥④⑦ |--①②|
口⑤③口 |③④⑤⑥|
②口口① |⑦⑧⑨⑩|
52
口①①口 |①---|
口口③口 |②-③-|
②口口③
口②口口
口口⑥口
⑤⑤口⑥
口口⑥口 |④-⑤-|
④口口④ |⑥---|
53
⑤⑤口④ |----|
⑧口③⑦ |①②③④|
⑧②口⑦ |⑤-⑥-|
①口⑥⑥ |⑦-⑧-|
54
口口①③ |①-②-|
口①③口 |-③--|
口②①口
②①口口
④口口口
口口口口
口⑤⑥口 |④---|
口口口④ |--⑤⑥|
55
⑤⑥⑦⑧ |①②③④|
①②③④ |⑤⑥⑦⑧|
⑩口口⑪ |⑨--⑩|
⑩⑨⑨⑪ |--⑪-|
56
口口口口 |①---|
口①①口 |②---|
口②②口
口口口口
⑥口口口
口⑤口口
④口口口 |③-④-|
口③口口 |⑤-⑥-|
57
口口①① |①---|
口口口口 |②-③-|
口口③口
口口口②
口口口④
口口⑤口
口口口⑥ |----|
口口⑦口 |④⑤⑥⑦|
58
口口口口 |①---|
口口口口 |--②③|
①①口口
②③口口
口口⑤④
⑥⑦口口
⑩⑪⑨⑧ |④⑤⑥⑦|
口口口口 |⑧⑨⑩⑪|
59
③③口④ |①-②-|
口⑤⑤① |③-④-|
口口口口 |--⑤-|
④口②口 |----|
60
口口口口 |①---|
口口口① |----|
口口口口 |----|
口口口① |----|
61
④⑤⑥⑦ |①-②③|
⑧⑨⑩⑪ |④⑤⑥⑦|
⑫⑬⑭口 |⑧⑨⑩⑪|
①口②③ |⑫⑬⑭-|
62
①口口④ |①-②-|
口口口口 |③-④-|
⑥⑦⑧⑨ |--⑤-|
③⑤⑤② |⑥⑦⑧⑨|
63
③①④② |①-②-|
①③②④ |③-④-|
口口口口 |--⑤-|
口⑤⑤口 |----|
64
①③④① |①-②-|
⑧⑤⑥⑧ |③④⑤⑥|
⑨⑪⑫⑩ |⑦-⑧-|
②⑦⑦② |⑨⑩⑪⑫|
65
①③④① |①-②-|
⑧⑤⑥⑧ |③④⑤⑥|
⑨⑪⑫⑩ |⑦-⑧-|
②⑦⑦② |⑨⑩⑪⑫|
66
①⑤⑥① |①-②-|
⑧③④⑧ |③④⑤⑥|
⑨⑪⑫⑩ |⑦-⑧-|
②⑦⑦② |⑨⑩⑪⑫|
67
①⑤⑥① |①-②-|
口③④口 |③④⑤⑥|
⑦⑨⑨⑧ |⑦--⑧|
②⑦⑧② |--⑨-|
68
⑤⑥④③ |①②③④|
①②⑫⑪ |⑤⑥⑦⑧|
⑬⑭⑯⑮ |⑨⑩⑪⑫|
⑨⑩⑧⑦ |⑬⑭⑮⑯|
69
①口口① |①---|
口口口口 |②---|
口口口口
②口口②
⑤口口⑤
口口口口
口③口口 |--③④|
口口④口 |⑤---|
70
⑩口③⑪ |①-②-③-|
⑥①口⑤ |④-⑤-⑥-|
⑫口⑦⑨ |⑦-⑧-⑨-|
④⑧口② |⑩-⑪-⑫-|
71
口①①口 |①---|
②口口② |②-③-|
口③③口 |----|
口口口口 |----|
72
①⑫⑪④ |①-②-③-|
口②⑤⑩ |④-⑤-⑥-|
⑦⑥③口 |⑦-⑧-⑨-|
口⑧⑨① |⑩-⑪-⑫-|
73
⑧口口⑥ |①-②-③-|
⑩⑦⑤⑫ |④-⑤-⑥-|
⑪④②⑨ |⑦-⑧-⑨-|
③口口① |⑩-⑪-⑫-|
74
口①①口 |①---|
口口口口 |----|
口口口口 |----|
口①①口 |----|
75
口口口口 |----|
口口口口 |--①②|
口口口③ |③---|
口口②① |----|
不確定度: 0