スカイダイバー
ヒゲドライバー feat.ヒゲドライVAN

ADVANCED

Level: 7
BPM: 180
Notes: 408

1
口口口口 |----|
口口口口 |----|
口口口口 |----|
口口口口 |----|
2
①口②口 |①---|
⑤口口口 |②---|
④口③口 |③---|
口口口口 |④-⑤-|
3
口①口口 |--①-|
口口③口 |--②-|
口②④口 |--③-|
口口口口 |④---|
4
口口②口 |①---|
口口口① |②---|
口口口口
口口口口

口口口口
口口口⑤
③口④口 |③---|
口口口口 |④-⑤-|
5
③②①③ |--①-|
口口口口 |--②-|
口口口口 |----|
口口口口 |③---|
6
口②②口 |①---|
口口口口 |②---|
口口口口
口①①口

口口口口
口③③口
口口口口 |③---|
口④④口 |--④-|
7
①口口① |--①-|
口口口口 |--②-|
②口口② |----|
口口口口 |----|
8
口②②口 |①---|
口口口口 |②---|
口口口口
口①①口

口口口口
口③③口
口口口口 |③---|
口④④口 |--④-|
9
①口口① |--①-|
口口口口 |--②-|
②口口② |----|
口口口口 |----|
10
口②②口 |①---|
口口口口 |②---|
口口口口
口①①口

口口口口
口③③口
口口口口 |③---|
口④④口 |--④-|
11
①口口① |--①-|
口④③口 |--②-|
②④③② |--③-|
口口口口 |--④-|
12
口口口口 |----|
口口口口 |----|
口口口口 |----|
口口口口 |----|
13
⑤口④⑥ |①-②-|
口③口口 |③-④-|
口口②口 |--⑤-|
口①口口 |--⑥-|
14
口②②口 |①---|
口口口口 |②---|
口口口口
口①①口

口口口口
口③③口
口口口口 |③---|
口④④口 |--④-|
15
①口口① |--①-|
口口口口 |--②-|
②口口② |----|
口口口口 |----|
16
口②②口 |①---|
口口口口 |②---|
口口口口
口①①口

口口口口
口③③口
口口口口 |③---|
口④④口 |--④-|
17
①口口① |--①-|
口口口口 |--②-|
②口口② |----|
口口口口 |----|
18
口②②口 |①---|
口口口口 |②---|
口口口口
口①①口

口口口口
口③③口
口口口口 |③---|
口④④口 |--④-|
19
①口口① |--①-|
口④③口 |--②-|
②④③② |--③-|
口口口口 |--④-|
20
③口口① |----|
口口②口 |①---|
口口口口 |②---|
口口口口 |--③-|
21
口③口口 |--①-|
①②口口 |--②-|
口口口口 |--③-|
口口口口 |----|
22
口口口口 |----|
口口口口 |①---|
口②口③ |②---|
①口口口 |--③-|
23
口口口口 |--①-|
口口口口 |--②-|
口口③口 |--③-|
口口②① |----|
24
③口口① |----|
口口②口 |①---|
口口口口 |②---|
口口口口 |--③-|
25
口③口口 |--①-|
①②口口 |--②-|
口口口口 |--③-|
口口口口 |----|
26
口口口口 |----|
口口口口 |①---|
口②口③ |②---|
①口口口 |--③-|
27
口口口口 |--①-|
口口口口 |--②-|
口口③口 |--③-|
口口②① |----|
28
口①②口 |--①-|
口③④口 |②-③-|
口⑤口口 |④---|
口口口口 |--⑤-|
29
口口口⑥ |①-②-|
口口口⑤ |③---|
口口①④ |--④-|
口②③口 |⑤-⑥-|
30
口①④口 |--①-|
口③②口 |--②-|
口口口口 |③---|
口口口口 |--④-|
31
③口口口 |--①-|
④口口口 |②---|
⑤①②口 |--③-|
口口口口 |④-⑤-|
32
口①②口 |--①-|
口③④口 |②-③-|
口⑤口口 |④---|
口口口口 |--⑤-|
33
口口口⑥ |①-②-|
口口口⑤ |③---|
口口①④ |--④-|
口②③口 |⑤-⑥-|
34
①口口口 |①---|
口①口口 |----|
口口②口 |②---|
口口口② |----|
35
口口口② |①---|
口口②口 |②---|
口①口口
①口口口

口口④口
口口口口
口⑤③口 |--③-|
口口口口 |④-⑤-|
36
①①口口 |①---|
②②口口 |--②-|
口口口口 |----|
③③口口 |③---|
37
口口口口 |----|
口口口口 |----|
口口口口 |----|
口口口口 |----|
38
口口③③ |①---|
口口①① |--②-|
口口口口 |----|
口口②② |③---|
39
口口口口 |----|
口口口口 |----|
口②①口 |①---|
口口口口 |②---|
40
口口口口 |①---|
口口口② |②---|
口口③口 |③---|
口④①口 |--④-|
41
口口口口 |--①-|
①口口口 |--②-|
口②口口 |----|
口口口口 |----|
42
口⑤④口 |①---|
口口口② |②---|
口口③口 |③---|
口口①口 |④-⑤-|
43
口口口口 |--①-|
口④③口 |--②-|
④①口③ |--③-|
口②口口 |④---|
44
口口口口 |①---|
口口口② |②---|
口口③口 |③---|
口④①口 |--④-|
45
口口口口 |--①-|
①口口口 |--②-|
口②口口 |----|
口口口口 |----|
46
口⑤④口 |①---|
口口②口 |②---|
口口③口 |③---|
口口①口 |④-⑤-|
47
口口口口 |--①-|
口④③口 |--②-|
④①口③ |--③-|
口②口口 |④---|
48
①口②口 |--①-|
③口④口 |②-③-|
⑤口口口 |④---|
口口口口 |--⑤-|
49
口口口⑥ |①-②-|
口口口⑤ |③---|
口口①④ |--④-|
②口③口 |⑤-⑥-|
50
①口②口 |--①-|
③口④口 |②-③-|
⑤口口口 |④---|
口口口口 |--⑤-|
51
口口口口 |①-②-|
口④口口 |③---|
口⑤①口 |--④-|
②⑥③口 |⑤-⑥-|
52
①口②口 |--①-|
③口④口 |②-③-|
⑤口口口 |④---|
口口口口 |--⑤-|
53
口口口⑥ |①-②-|
口口口⑤ |③---|
口口①④ |--④-|
②口③口 |⑤-⑥-|
54
口①口口 |①---|
①口口口 |----|
②口口口 |②---|
口②口口 |----|
55
口口口② |①---|
口①②口 |②---|
④②①口 |--③-|
口⑤③① |④-⑤-|
56
①①口口 |①---|
口口②② |--②-|
口口口口 |----|
口口③③ |③---|
57
口口口口 |----|
口口口口 |----|
口口口口 |----|
口口口口 |----|
58
口口③③ |①---|
①①口口 |--②-|
口口口口 |----|
②②口口 |③---|
59
口口口口 |----|
口口口口 |----|
口②①口 |①---|
口口口口 |②---|
60
①①①口 |①---|
口②②口 |--②-|
口口③口 |----|
口口口口 |③---|
61
口口口口 |----|
口口口口 |----|
口口口口 |①---|
口②①口 |②---|
62
口口⑥③ |①---|
口口④⑥ |②---|
②⑤口① |③-④-|
口口口口 |⑤-⑥-|
63
口②口口 |--①-|
②④③口 |--②-|
口③④口 |--③-|
口①①口 |④---|
64
口③①口 |①---|
③口口① |--②-|
口④口口 |③---|
口口②口 |--④-|
65
口口③口 |①---|
口④②口 |②-③-|
口口⑤① |--④-|
口口口⑥ |⑤-⑥-|
66
②②口口 |①---|
口口口口 |②---|
③③口口 |③---|
①①④④ |--④-|
67
口口①① |--①-|
口口③口 |--②-|
口④②② |--③-|
⑤口口口 |④-⑤-|
68
口③①口 |①---|
③口口① |--②-|
口口②口 |③---|
口④口口 |--④-|
69
口口③口 |①---|
口④②口 |②-③-|
口口⑤① |--④-|
口口口⑥ |⑤-⑥-|
70
②②④④ |①---|
口口口口 |②---|
③③口口 |③---|
①①口口 |--④-|
71
口口口口 |--①-|
口③①① |--②-|
口口④口 |--③-|
口⑤②② |④-⑤-|
72
口③①口 |①---|
③口口① |--②-|
口口口口 |③---|
口④②口 |--④-|
73
口口③口 |①---|
口④口口 |②-③-|
口②⑤① |--④-|
口口口⑥ |⑤-⑥-|
74
②②口口 |①---|
口口口口 |②---|
③③口口 |③---|
①①④④ |--④-|
75
口口①① |--①-|
口口⑤口 |--②-|
口④②② |--③-|
③口口口 |④-⑤-|
76
口口口① |①---|
②口口③ |②---|
口口④口 |③---|
口口口口 |--④-|
77
①口口② |--①-|
口③④口 |--②-|
口口口口 |--③-|
口口口口 |④---|
78
④口口④ |①---|
②口口② |②---|
口③③口 |③---|
口①①口 |--④-|
79
④④④④ |--①-|
口②②口 |--②-|
①口口① |--③-|
口③③口 |--④-|

不確定度: 0

最終更新:2017年08月16日 00:39