スカイダイバー
ヒゲドライバー feat.ヒゲドライVAN

EXTREME

Level: 9
BPM: 180
Notes: 606

1
口口口口 |----|
口口口口 |----|
口口口口 |----|
口口口口 |----|
2
③口⑥④ |①---|
口①②⑤ |②---|
口②①口 |③-④-|
口口口口 |⑤-⑥-|
3
②口口口 |--①-|
口口口口 |--②-|
③④①口 |--③-|
口口口口 |④---|
4
口③口口 |①②--|
口口口② |③---|
口口口①
口口口口

口口口口
④口口⑦
口⑤口⑥ |④---|
口口口口 |⑤-⑥⑦|
5
⑤②①⑤ |--①-|
口口口口 |--②-|
口③④口 |--③④|
口口口口 |⑤---|
6
口②②口 |①---|
口③③口 |②---|
口⑤⑤口 |③---|
④①①口 |④-⑤-|
7
④①①口 |--①-|
口③③口 |②-③-|
口口口② |----|
口口口口 |④---|
8
口②②口 |①---|
口③③口 |②---|
口⑤⑤口 |③---|
④①①口 |④-⑤-|
9
④①①口 |--①-|
口③③口 |②-③-|
口口口② |----|
口口口口 |④---|
10
口②②口 |①---|
口③③口 |②---|
口⑤⑤口 |③---|
④①①口 |④-⑤-|
11
⑤①①④ |--①-|
口③③口 |②-③-|
⑤口口④ |--④-|
口口口② |--⑤-|
12
口②④⑦ |①-②-|
⑤⑨口① |③-④-|
口③⑧⑥ |⑤-⑥-|
口口口口 |⑦-⑧⑨|
13
①④口⑤ |①-②-|
口口②口 |③-④-|
③口⑥口 |--⑤-|
口口口口 |--⑥-|
14
口②②口 |①---|
口③③口 |②---|
口⑤⑤口 |③---|
④①①口 |④-⑤-|
15
④①①口 |--①-|
口③③口 |②-③-|
口口口② |----|
口口口口 |④---|
16
④②②口 |①---|
口③③口 |②---|
口⑤⑤口 |③---|
①①①① |④-⑤-|
17
口①①④ |--①-|
口③③口 |②-③-|
口口口② |----|
口口口口 |④---|
18
②②②口 |①---|
口口口口 |②---|
口口口口
口①①①

口口口口
⑤口口④
③③③口 |③---|
⑤口⑤口 |④-⑤-|
19
口①口① |--①-|
④口口③ |--②-|
口④③① |--③-|
口②口② |--④-|
20
口④口口 |----|
口①②③ |①-②-|
口口口口 |③---|
口口口口 |--④-|
21
口口口口 |--①-|
口③④⑤ |--②-|
①口口口 |--③-|
口②口口 |④-⑤-|
22
口口④口 |----|
口口口口 |①-②-|
①②③口 |③---|
口口口口 |--④-|
23
口③④⑤ |--①-|
口口口口 |--②-|
①口口口 |--③-|
口口②口 |④-⑤-|
24
口④口口 |----|
口①②③ |①-②-|
口口口口 |③---|
口口口口 |--④-|
25
口口口口 |--①-|
口③④⑤ |--②-|
①口口口 |--③-|
口②口口 |④-⑤-|
26
口口④口 |----|
口口口口 |①-②-|
①②③口 |③---|
口口口口 |--④-|
27
口③④⑤ |--①-|
口口口口 |--②-|
①口口口 |--③-|
口口②口 |④-⑤-|
28
口口口口 |--①-|
口口口口 |②-③-|
⑤口口④ |④---|
①②③口 |--⑤-|
29
口口⑥口 |①-②-|
口口⑤③ |③---|
口①②口 |--④-|
口口④口 |⑤-⑥-|
30
口口口口 |--①-|
④口口③ |--②-|
①口②口 |③---|
口口口口 |--④-|
31
口③口② |--①-|
口口①口 |②---|
口④口口 |--③-|
口⑤口口 |④-⑤-|
32
口口口④ |--①-|
①②③口 |②-③-|
⑤口口口 |④---|
口口口口 |--⑤-|
33
口口⑥口 |①-②-|
口口⑤③ |③---|
口①②口 |--④-|
口口④口 |⑤-⑥-|
34
①口口口 |①---|
口①口口 |----|
口②口口 |②---|
②口口口 |----|
35
口口口② |①---|
口口②口 |②---|
口口①口
口口口①

口口④口
口口口口
口口⑤口 |--③-|
口③口口 |④-⑤-|
36
①①口② |①---|
③③④口 |②-③-|
口④口④ |----|
口口④口 |④---|
37
口口口⑤ |--①-|
②④口③ |②---|
口口⑥口 |③-④-|
①口口口 |⑤-⑥-|
38
①①④口 |①---|
口④口④ |②-③-|
口②④口 |----|
口口③③ |④---|
39
口口口口 |--①-|
②口口口 |②---|
④口口③ |③---|
④①口③ |④---|
40
口③口④ |①---|
③①②口 |②---|
口②①③ |③---|
④口③口 |--④-|
41
口②口口 |--①-|
②口①口 |--②-|
口①口② |----|
口口②口 |----|
42
⑤③口④ |①---|
口①②口 |②---|
口②①口 |③---|
④口③⑤ |④-⑤-|
43
口口②口 |--①-|
③①口② |--②-|
②口①口 |--③-|
④②口口 |④---|
44
④②③口 |①---|
口口②③ |②---|
③①口口 |③---|
口③①④ |--④-|
45
口口②口 |--①-|
口①口② |--②-|
②口①口 |----|
口②口口 |----|
46
④口③⑤ |①---|
口②①口 |②---|
口①②口 |③---|
⑤③口④ |④-⑤-|
47
口②③口 |--①-|
②口①口 |--②-|
口①④② |--③-|
口口②口 |④---|
48
④口口口 |--①-|
口③口口 |②-③-|
口②口口 |④---|
口①⑤口 |--⑤-|
49
口口口③ |①-②-|
⑥⑤②④ |③---|
口口①④ |--④-|
口口口口 |⑤-⑥-|
50
口口口④ |--①-|
口口③口 |②-③-|
口口②口 |④---|
口⑤①口 |--⑤-|
51
③口口口 |①-②-|
④②⑤⑥ |③---|
④①口口 |--④-|
口口口口 |⑤-⑥-|
52
④口口口 |--①-|
口③口口 |②-③-|
口②口口 |④---|
口①⑤口 |--⑤-|
53
口口口③ |①-②-|
⑥⑤②④ |③---|
口口①④ |--④-|
口口口口 |⑤-⑥-|
54
④①①口 |①---|
口④口口 |--②-|
口②③口 |③---|
②口口③ |--④-|
55
口口②① |①---|
口口①② |②---|
口口④口 |--③-|
口③⑤口 |④-⑤-|
56
口②口口 |①---|
①④口③ |②-③-|
④①④③ |----|
①④口口 |④---|
57
口⑤口口 |--①-|
口口口② |②---|
口⑥④口 |③-④-|
③口口① |⑤-⑥-|
58
口口④① |①---|
②④①④ |②-③-|
口口④① |----|
③③口口 |④---|
59
口②口③ |--①-|
口口口④ |②---|
口①口⑤ |③-④-|
口口⑥口 |⑤-⑥-|
60
口口①口 |①---|
口①②口 |--②-|
①②③口 |----|
口口口口 |③---|
61
口口口口 |----|
口口口口 |----|
口口口口 |①---|
口②①口 |②---|
62
②口④口 |①---|
③②①口 |②---|
⑥口口⑤ |③-④-|
口⑥⑤口 |⑤-⑥-|
63
①②③③ |--①-|
口①③② |--②-|
口②①③ |--③-|
口口③③ |----|
64
口②口口 |①---|
①①口② |②-③-|
①③①口
①①口口

⑤口⑤口
口口④口
口口口④ |④---|
⑥口口口 |⑤-⑥-|
65
口③口② |①---|
口②口口 |②-③-|
口口①口
口①口口

口口⑥口
口口口⑤
⑥口⑦④ |-④⑤-|
口口口口 |⑥-⑦-|
66
②②口② |①---|
口口②口 |②---|
口口口口
①①口口

口口口口
③③口口
口口④口 |③---|
⑤⑤口④ |④-⑤-|
67
①①口② |--①-|
④口②口 |②-③-|
③③口⑥ |--④-|
口⑤口⑤ |⑤-⑥-|
68
①④③口 |①---|
④①口⑥ |②-③-|
②口②口 |④---|
口⑤口⑤ |⑤-⑥-|
69
②⑥②⑥ |①---|
口口⑤口 |②-③-|
③①④⑦ |-④⑤-|
口口①口 |⑥-⑦-|
70
⑤⑤②口 |①---|
②②口② |②---|
③③口④ |③---|
①①④口 |④-⑤-|
71
口口②② |--①-|
①①③⑥ |②-③-|
口③口⑤ |--④-|
口口口④ |⑤-⑥-|
72
⑤②⑤② |①---|
①①④口 |②-③-|
①④①⑥ |④---|
①①③口 |⑤-⑥-|
73
口③口口 |①---|
②口口② |②-③-|
口口①口
口①口口

口口口口
口口口口
④口⑥口 |--④-|
⑤口口⑤ |⑤-⑥-|
74
②②口② |①---|
口口②口 |②---|
口口口口
口①①口

口口口口
口口口口
③③④口 |③---|
⑤⑤口④ |④-⑤-|
75
①①口② |--①-|
③③②口 |②-③-|
口⑤⑥⑤ |--④-|
口口④口 |⑤-⑥-|
76
口③①口 |①---|
②口②口 |②---|
④口④口 |③---|
口⑤口口 |④-⑤-|
77
①②①② |--①-|
②①②① |--②-|
口口口口 |--③-|
④④③③ |④---|
78
口②②口 |①---|
⑤③③④ |②---|
口①①口 |③---|
⑤口⑤口 |④-⑤-|
79
口①③① |--①-|
④③④③ |--②-|
④④③① |--③-|
④②④② |--④-|

不確定度: 0

最終更新:2017年08月16日 00:39