AREA 51
96

ADVANCED

Level: 8
BPM: 188
Notes: 562

1
口口口口 |----|
口口口口 |----|
口口口口 |----|
口①①口 |--①-|
2
口①①口 |--①-|
②③④⑤ |--②-|
口口口口 |③-④-|
口⑥⑥口 |⑤-⑥-|
3
口①①口 |--①-|
口口口口 |--②-|
⑤④③② |③-④-|
口⑥⑥口 |⑤-⑥-|
4
口①①口 |--①-|
②③口口 |--②-|
口口④⑤ |③-④-|
口⑥⑥口 |⑤-⑥-|
5
口①①口 |--①-|
口口③② |--②-|
⑤④口口 |③-④-|
口⑥⑥口 |⑤-⑥-|
6
口①①口 |--①-|
②③④⑤ |--②-|
口口口口 |③-④-|
口⑥⑥口 |⑤-⑥-|
7
口①①口 |--①-|
口口口口 |--②-|
⑤④③② |③-④-|
口⑥⑥口 |⑤-⑥-|
8
口①①口 |--①-|
②③口口 |--②-|
口口④⑤ |③-④-|
口⑥⑥口 |⑤-⑥-|
9
口①①口 |--①-|
口口③② |--②-|
⑤④口口 |③-④-|
口⑥⑥口 |⑤-⑥-|
10
口①①口 |--①-|
②③④⑤ |--②-|
口口口口 |③-④-|
口⑥⑥口 |⑤-⑥-|
11
口①①口 |--①-|
口口口口 |--②-|
⑤④③② |③-④-|
口⑥⑥口 |⑤-⑥-|
12
口①①口 |--①-|
②③口口 |--②-|
口口④⑤ |③-④-|
口⑥⑥口 |⑤-⑥-|
13
口①①口 |--①-|
口口③② |--②-|
⑤④口口 |③-④-|
口⑥⑥口 |⑤-⑥-|
14
口①①口 |--①-|
②③④⑤ |--②-|
口口口口 |③-④-|
口⑥⑥口 |⑤-⑥-|
15
口①①口 |--①-|
口口口口 |--②-|
⑤④③② |③-④-|
口⑥⑥口 |⑤-⑥-|
16
口①①口 |--①-|
②③口口 |--②-|
口口④⑤ |③-④-|
口⑥⑥口 |⑤-⑥-|
17
口①①口 |--①-|
口口③② |--②-|
⑤④口口 |③-④-|
口⑥⑥口 |⑤-⑥-|
18
口①①口 |--①-|
②口③③ |②-③-|
⑤⑤口④ |④-⑤-|
口⑦⑥口 |⑥-⑦-|
19
口①②口 |①-②-|
口③④口 |③-④-|
口⑤⑥口 |⑤-⑥-|
口⑦⑧口 |⑦-⑧-|
20
①③④② |--①-|
口口口口 |②-③-|
口⑤⑥口 |④---|
口口口口 |⑤-⑥-|
21
口⑦⑦口 |--①-|
口口口口 |②-③-|
④⑤⑥口 |④-⑤-|
口③②① |⑥-⑦-|
22
⑤口口⑦ |--①-|
①②③口 |②-③-|
口口口口 |④-⑤-|
④口口⑥ |⑥-⑦-|
23
口口口口 |①-②-|
口⑥⑥口 |③-④-|
④③②① |⑤-⑥-|
⑦⑤⑤⑦ |--⑦-|
24
①③④② |--①-|
口口口口 |②-③-|
口⑤⑥口 |④---|
口口口口 |⑤-⑥-|
25
口⑦⑦口 |--①-|
口口口口 |②-③-|
④⑤⑥口 |④-⑤-|
口③②① |⑥-⑦-|
26
口口口口 |--①-|
①②③口 |②-③-|
口口口口 |----|
口④⑤口 |④-⑤-|
27
口⑤⑤口 |①-②-|
口③④口 |③-④-|
口①②口 |⑤---|
⑥口口⑥ |--⑥-|
28
①③④② |--①-|
口口口口 |②-③-|
口⑤⑥口 |④---|
口口口口 |⑤-⑥-|
29
口⑦⑦口 |--①-|
口口口口 |②-③-|
④⑤⑥口 |④-⑤-|
口③②① |⑥-⑦-|
30
⑤口口⑦ |--①-|
①②③口 |②-③-|
口口口口 |④-⑤-|
④口口⑥ |⑥-⑦-|
31
口口口口 |①-②-|
口⑥⑥口 |③-④-|
④③②① |⑤-⑥-|
⑦⑤⑤⑦ |--⑦-|
32
①③④② |--①-|
口口口口 |②-③-|
口⑤⑥口 |④---|
口口口口 |⑤-⑥-|
33
口⑦⑦口 |--①-|
口口口口 |②-③-|
④⑤⑥口 |④-⑤-|
口③②① |⑥-⑦-|
34
口口口④ |--①-|
①②③口 |②-③-|
口口口口 |④---|
口⑤⑥口 |⑤-⑥-|
35
⑤口口⑤ |①-②-|
口③④口 |③-④-|
口①②口 |⑤---|
口⑥⑥口 |--⑥-|
36
口①①口 |----|
②口口② |①---|
口③③口 |②-③-|
④⑤⑤④ |④-⑤-|
37
④口口② |----|
口口口口 |----|
③口口① |①-②-|
口口口口 |③-④-|
38
③口口③ |----|
口口口口 |----|
口②②口 |①-②-|
①口口① |--③-|
39
口口口口 |--①-|
口①②口 |②---|
口口口口 |----|
口③③口 |--③-|
40
口①①口 |----|
②口口② |①---|
口③③口 |②-③-|
④⑤⑤④ |④-⑤-|
41
④口口② |----|
口口口口 |----|
③口口① |①-②-|
口口口口 |③-④-|
42
口③①口 |----|
口口口口 |----|
口④②口 |①-②-|
口口口口 |③-④-|
43
口口口口 |----|
口口口口 |----|
口口口口 |----|
口①①口 |--①-|
44
口①①口 |----|
②口口② |①---|
口③③口 |②-③-|
④⑤⑤④ |④-⑤-|
45
④口口② |----|
口口口口 |----|
③口口① |①-②-|
口口口口 |③-④-|
46
③口口③ |----|
口口口口 |----|
口②②口 |①-②-|
①口口① |--③-|
47
口口口口 |--①-|
口①②口 |②---|
口口口口 |----|
口③③口 |--③-|
48
口①①口 |----|
②口口② |①---|
口③③口 |②-③-|
④⑤⑤④ |④-⑤-|
49
④口口② |----|
口口口口 |----|
③口口① |①-②-|
口口口口 |③-④-|
50
口口口口 |----|
口口口口 |----|
口口口口 |----|
口口口口 |----|
51
口③③口 |①---|
口①①口 |----|
口④④口 |②-③-|
口②②口 |--④-|
52
②口口② |----|
口口口口 |----|
口③③口 |①-②-|
①口口① |--③-|
53
①口口① |----|
口口口口 |----|
口口口口 |----|
口口口口 |--①-|
54
口③②口 |--①-|
口⑤④口 |②-③-|
口⑦⑥口 |④-⑤-|
①口口① |⑥-⑦-|
55
⑥③②⑥ |①---|
口⑤④口 |②-③-|
口口口口 |④-⑤-|
①口口① |--⑥-|
56
口口口口 |--①-|
④⑤口口 |②-③-|
口⑥⑥口 |④-⑤-|
口③②① |--⑥-|
57
口③②① |--①-|
口口口口 |②-③-|
口口口口 |----|
④口口④ |--④-|
58
①②③① |--①-|
口④⑤口 |②-③-|
口⑥⑦口 |④-⑤-|
口口口口 |⑥-⑦-|
59
口③④口 |①-②-|
口⑤⑥口 |③-④-|
⑦口口⑧ |⑤-⑥-|
口①②口 |⑦-⑧-|
60
①②③口 |--①-|
口口口口 |②-③-|
口口口口 |④-⑤-|
⑥口⑤④ |--⑥-|
61
口口口① |--①-|
口口口② |②-③-|
口口口③ |----|
④口口⑤ |④-⑤-|
62
口①②口 |--①-|
口③④口 |②-③-|
口⑤⑥口 |④-⑤-|
口⑦口口 |⑥-⑦-|
63
口②③口 |①-②-|
口④⑤口 |③-④-|
口⑥⑦口 |⑤-⑥-|
⑧口①⑧ |⑦-⑧-|
64
口①①口 |----|
口口口口 |①---|
②口口③ |②-③-|
口④④口 |--④-|
65
口①①口 |--①-|
口口口口 |----|
口口口口 |----|
②口口③ |②-③-|
66
口①②口 |--①-|
口③④口 |②-③-|
口⑤⑥口 |④-⑤-|
口⑦口口 |⑥-⑦-|
67
口②③口 |①-②-|
口④⑤口 |③-④-|
口⑥⑦口 |⑤-⑥-|
⑧口①⑧ |⑦-⑧-|
68
口①②口 |--①-|
口③④口 |②-③-|
口⑤⑥口 |④-⑤-|
口⑦口口 |⑥-⑦-|
69
口②③口 |①-②-|
口④⑤口 |③-④-|
口⑥⑦口 |⑤-⑥-|
⑧口①⑧ |⑦-⑧-|
70
口①①口 |--①-|
②③④⑤ |--②-|
口口口口 |③-④-|
口⑥⑥口 |⑤-⑥-|
71
口①①口 |--①-|
口口口口 |--②-|
⑤④③② |③-④-|
口⑥⑥口 |⑤-⑥-|
72
口①①口 |--①-|
②③口口 |--②-|
口口④⑤ |③-④-|
口⑥⑥口 |⑤-⑥-|
73
口①①口 |--①-|
口口③② |--②-|
⑤④口口 |③-④-|
口⑥⑥口 |⑤-⑥-|
74
口①①口 |--①-|
②③④⑤ |--②-|
口口口口 |③-④-|
口⑥⑥口 |⑤-⑥-|
75
口①①口 |--①-|
口口口口 |--②-|
⑤④③② |③-④-|
口⑥⑥口 |⑤-⑥-|
76
口①①口 |--①-|
②③口口 |--②-|
口口④⑤ |③-④-|
口⑥⑥口 |⑤-⑥-|
77
口①①口 |--①-|
口口③② |--②-|
⑤④口口 |③-④-|
口⑥⑥口 |⑤-⑥-|
78
口①①口 |--①-|
②③④⑤ |--②-|
口口口口 |③-④-|
口⑥⑥口 |⑤-⑥-|
79
口①①口 |--①-|
口口口口 |--②-|
⑤④③② |③-④-|
⑥⑥⑥⑥ |⑤-⑥-|
80
口口口口 |----|
口口口口 |----|
口口口口 |----|
口口口口 |----|
81
①①①① |----|
口口口口 |----|
口口口口 |----|
口口口口 |--①-|

不確定度: 0

最終更新:2014年12月14日 17:48