ぱんだしんけん1、2、3 ~ちえ!おっしょさんにはかなわないや!~
おひさまくらぶ

EXTREME

Level: 9
BPM: 158
Notes: 618

1
口口口口 |----|
口口口口 |----|
口口口口 |----|
口口口口 |----|
2
口口口口 |①---|
①①①① |----|
口②②口 |----|
口口口口 |--②-|
3
口口口口 |①---|
口①①口 |----|
口②②口 |----|
口口口口 |--②-|
4
口口口口 |①---|
③①①③ |--②-|
②口口② |③---|
口口口口 |----|
5
口①①口 |①---|
口口口口 |②---|
口②②口
口口口口

口⑦⑦口
⑤口口⑥
③口口④ |③④⑤⑥|
口口口口 |⑦---|
6
①口口③ |①---|
④②②④ |②---|
口①③口 |③---|
口口口口 |④---|
7
①口口③ |①---|
④②②④ |②---|
口①③口 |③---|
口口口口 |④---|
8
口①③口 |①---|
④②②④ |②---|
①口口③ |③---|
口口口口 |④---|
9
口①③口 |①---|
④②②④ |②---|
①口口③ |③---|
口口口口 |④---|
10
①口口③ |①---|
④②②④ |②---|
口①③口 |③---|
口口口口 |④---|
11
①口口③ |①---|
④②②④ |②---|
口①③口 |③---|
口口口口 |④---|
12
口①③口 |①---|
④②②④ |②---|
①口口③ |③---|
口口口口 |④---|
13
②①③② |①---|
④②②④ |②---|
①口口③ |③---|
口口口口 |④---|
14
①口⑤② |①---|
口④口口 |--②-|
①口③② |--③-|
口口口口 |④-⑤-|
15
①口口口 |①-②③|
④⑥⑥④ |④-⑤-|
②⑤⑤口 |⑥---|
口③口口 |----|
16
②口口① |①---|
口③口口 |--②-|
②口④① |--③-|
口⑤口口 |④-⑤-|
17
⑤口⑤① |①-②③|
④⑦④⑦ |④-⑤-|
⑦⑥⑦② |⑥-⑦-|
口口③口 |----|
18
口①口① |①---|
口②③口 |--②-|
口④⑤口 |③-④-|
口⑥口口 |⑤-⑥-|
19
⑦口口① |①-②③|
④口口④ |④-⑤-|
⑥⑧⑧② |⑥-⑦-|
⑤口③⑤ |⑧---|
20
③③①① |①---|
口口口口 |--②-|
口④④口 |③---|
口口②口 |④---|
21
④③②① |①-②-|
口口口口 |--③-|
口口口口 |④---|
①②③④ |----|
22
③②①口 |①---|
口口口口 |--②-|
③②①口 |----|
口口口口 |③---|
23
口口口口 |①---|
口①②③ |--②-|
口口口口 |----|
口①②③ |③---|
24
口口口口 |①---|
口 |----|

口口口口

口口口口
口口口
口口口 |----|
口口口口 |②---|
25
口口口口 |①---|
|----|

口口口口

口口口口
口口口
口口口 |----|
口口口口 |②---|
26
口①②③ |①---|
口口口口 |--②-|
口①②③ |----|
口口口口 |③---|
27
口口口口 |①---|
③②①口 |--②-|
口口口口 |----|
③②①口 |③---|
28
口 |①---|
口口口口 |----|
口口口口


口口口
口口口口
口口口口 |--②-|
口口口 |----|
29
④①②③ |①-②-|
①②①口 |----|
口④③② |----|
口②①口 |③-④-|
30
口②③口 |①---|
口口口口 |----|
①②③① |--②-|
口口口口 |③---|
31
①口口① |①---|
口①①口 |--②-|
②②③③ |③---|
口②③口 |----|
32
②④②④ |①-②-|
⑤⑤⑥⑥ |③-④-|
口⑤⑥口 |⑤-⑥-|
①⑦⑧③ |⑦-⑧-|
33
②②④④ |①-②-|
口口口口 |--③-|
口口口口 |④---|
①口口③ |----|
34
④②口③ |①---|
④口口① |②---|
口③口④ |③---|
口①②④ |④---|
35
③口①② |①---|
③①②② |②---|
②②①③ |③---|
②①③口 |----|
36
口①①⑦ |①---|
⑤口③⑦ |②-③-|
⑤②口口 |④-⑤-|
口④⑥口 |⑥-⑦-|
37
③口③口 |①---|
口②口口 |--②-|
口①①口 |③---|
④口④口 |④---|
38
②②口① |①---|
口②①① |----|
②口口① |②---|
②②口① |----|
39
②②①① |①---|
②②口① |----|
口②①① |②---|
口②①① |----|
40
②口①① |①---|
②口①口 |----|
②②口① |②---|
②②①① |----|
41
口①①① |--①-|
口①口① |----|
口口口① |----|
口口口① |----|
42
①②③口 |①②③-|
口口口口 |④⑤⑥⑦|
口④⑤口
口⑥⑦口

⑭口口⑮
⑫口口⑬
⑩口口⑪ |⑧⑨⑩⑪|
⑧口口⑨ |⑫⑬⑭⑮|
43
口④④口 |①-②-|
口①①口 |③-④-|
口③③口
口②②口

口口口口
⑦⑨⑨⑧
⑤口口⑥ |⑤⑥⑦⑧|
口口口口 |⑨---|
44
①口口① |①-②-|
⑤⑥口口 |③④⑤⑥|
③④口口
②口口②

口口⑫⑬
口口⑩⑪
口口⑧⑨ |⑦-⑧⑨|
口⑦⑦口 |⑩⑪⑫⑬|
45
①②口口 |①---|
③③③③ |②---|
②①口口 |③---|
口口口口 |----|
46
③口口① |①-②-|
④口口④ |③-④-|
③②②①
口口口口

口⑦⑦口
口口口口
口⑧⑧口 |⑤-⑥-|
⑤⑤⑥⑥ |⑦-⑧-|
47
①口口② |①②③④|
③口口④ |⑤⑥⑦⑧|
⑤口口⑥
⑦口口⑧

口口⑭⑭
口⑩⑪口
口⑫⑬口 |⑨-⑩⑪|
口⑨⑨口 |⑫⑬-⑭|
48
③③口口 |①-②-|
①④⑤② |③-④⑤|
②口口①
口口口口

口口⑫口
口口口⑫
口⑥⑦口 |⑥⑦⑧⑨|
⑩⑧⑨⑪ |⑩⑪-⑫|
49
①②口口 |①②③④|
③④⑤口 |⑤-⑥-|
口口口口
口⑥⑥口


口口口口
|⑦---|
口口口口

口口口
口口口口
口口口
口口口口 |---⑧|
50
口口口口 |①---|
①口口① |----|
口口口口 |--②-|
口②③口 |③---|
51
口口口口 |①---|
①口口① |--②-|
口口口口 |③---|
口②③口 |----|
52
①③⑦⑤ |①-②-|
口口口口 |③-④-|
②④⑧⑥ |⑤-⑥-|
口口口口 |⑦-⑧-|
53
②②④④ |①-②-|
口口口口 |--③-|
口口口口 |④---|
口①③口 |----|
54
①③②④ |①---|
口口口口 |②---|
口口口口 |③---|
④②③① |④---|
55
口口口口 |①---|
①口口② |②---|
②口口① |③---|
口③③口 |----|
56
④口口④ |①---|
①口口① |②-③-|
⑤口口⑤ |④---|
口②③口 |⑤---|
57
②①①② |①---|
①口口① |--②-|
③口口⑤ |③-④-|
口④⑥口 |⑤-⑥-|
58
④①①④ |①-②-|
⑤②②⑤ |③---|
⑥③③⑥ |④-⑤-|
口口口口 |⑥---|
59
口⑥⑧口 |①-②-|
⑥①②⑧ |③-④-|
⑦口口⑤ |⑤-⑥-|
⑤③④⑦ |⑦-⑧-|
60
②口口② |①-②-|
口③③口 |③---|
口①①口
口口口口

口口口口
⑤口口⑤
口⑥⑥口 |④-⑤-|
口④④口 |⑥---|
61
口⑧⑥口 |①-②-|
⑧①②⑥ |③-④-|
⑤口口⑦ |⑤-⑥-|
⑦③④⑤ |⑦-⑧-|
62
④口口④ |①-②-|
⑤①①⑤ |③---|
⑥②②⑥ |④-⑤-|
口③③口 |⑥---|
63
口⑥⑧口 |①-②-|
⑥①②⑧ |③-④-|
⑦口口⑤ |⑤-⑥-|
⑤③④⑦ |⑦-⑧-|
64
②口口② |①-②-|
口③③口 |③---|
口①①口
口口口口

口口口口
⑤口口⑤
口⑥⑥口 |④-⑤-|
口④④口 |⑥---|
65
⑥口口⑧ |①-②-|
口②口口 |③-④-|
①口口④ |⑤⑥-⑦|
⑤口③⑦ |⑧---|
66
口①②口 |①-②-|
口②①口 |----|
①③③② |----|
口②①口 |--③-|
67
口口口口 |①---|
口①①口 |----|
口②②口 |----|
口口口口 |--②-|
68
口口口口 |①---|
③①①③ |--②-|
②口口② |③---|
口口口口 |----|
69
③①①③ |①---|
口③③口 |②---|
口②②口 |③---|
口口口口 |----|
70
口口口口 |--①-|
|②---|
|----|
口口口口 |----|
71
口口口口 |----|
口口口口 |----|
口口口口 |----|
口口口口 |----|
72
口口口口 |①-②-|
口口口 |----|
口口口 |----|
口口口口 |----|

不確定度: 0

最終更新:2017年08月15日 23:40