月風魔伝 ~ビーストメドレー~
Akhuta

EXTREME

Level: 9
BPM: 170
Notes: 823

1
口口口口 |----|
口口口口 |----|
口口口口 |----|
口口口口 |----|
2
口口口口 |①---|


口口口口

口口口口
口口口 |②---|
口口
口口口口



口 |③---|


口口
口口口口
口口口口
口口口 |④---|
3
口 |①---|
口口口口
口口口口


口口
|②---|
|③---|
口口

口口口口
口口口
口口口
口口口口 |④---|
4
|①---|
口口口口
口口口口


口口口
口 |②---|
|③---|
口口口

口口口口
口口
口口
口口口口 |④---|
5
口 |①---|




口口
口口口口 |②---|
口口口口
口口


口口口口
口口口口 |③---|


口口口
口口口口
口口口口
口口口 |④---|
6
口 |①---|

口口口口
口口口口

口口
口口口 |②---|
口②口口
口口口口



口口口口 |③---|
口口口口

口口口
口口口
口口④口
口口口口 |④---|
7
口口口口 |①---|
口口口口



口口口口
口②口口 |②---|
口口口
口口

口口口口
口口口口
|③---|


口口口口
口口④口
口口口
口口口 |④---|
8
口口①口 |①-②-|
口④口① |③-④-|
口②③口
口口口口

口⑦⑧口
口口⑥口
口口口⑤ |⑤-⑥-|
口口⑤口 |⑦-⑧-|
9
口⑤口口 |①-②-|
⑤⑦⑥口 |③-④-|
①③②口 |⑤-⑥-|
口①④口 |⑦---|
10
|①-|
口口口口

口口口口

口口 |②-|
口口口口 |----|
口口 |----|
口口口口 |----|
11
口⑤①口 |①-②-|
口⑤①口 |③-④-|
②⑦③⑥ |⑤-⑥-|
④口口⑧ |⑦-⑧-|
12
①口口口 |①-②-|
①口口口 |③-④-|
口口④口
口③②口

⑧口口⑤
口口口口
口口口口 |⑤-⑥-|
⑦口口⑥ |⑦-⑧-|
13
口①⑤口 |①-②-|
口①⑤口 |③-④-|
⑥③⑦② |⑤-⑥-|
⑧口口④ |⑦-⑧-|
14
口口口① |①-②-|
口口口① |③-④-|
口④口口
口②③口

⑤口口⑧
口口口口
口口口口 |⑤-⑥-|
⑥口口⑦ |⑦-⑧-|
15
口口②口 |①-②-|
口①③① |③-④-|
口④口④
口口口口

口口口口
口⑧口口
口口⑥口 |⑤-⑥-|
口⑦⑤⑦ |⑦-⑧-|
16
口①④口 |①---|
③④③② |②---|
①④口④ |③---|
口③②口 |④---|
17
|①---|
口口口口
口口口口
口口口口

口口口
口④③② |--②③|
口口口口 |④---|
口⑤口口 |⑤---|
18
口口口口 |①---|
口口口口
口口口口


口口口口
口口⑤口 |--②③|
⑥②③④ |④-⑤-|
口⑦口 |⑥-⑦-|
19
|①②③-|
②口口口
口口口口
口口①口

口口口
口⑦口口 |--④⑤|
⑥⑤④⑧ |⑥-⑦-|
口口⑨口 |⑧-⑨-|
20
口 |①②③-|
口口口②
口口口口
口①口口

口口口
口口⑦口 |--④⑤|
⑧④⑤⑥ |⑥-⑦-|
口⑨口口 |⑧-⑨-|
21
|①②③-|
②口口口
口口口口
口口①口

口口口
口⑦口口 |--④⑤|
⑥⑤④⑧ |⑥-⑦-|
口口⑨口 |⑧-⑨-|
22
口 |①②③-|
口口口②
口口口口
口①口口

⑨口口
口口⑧口 |--④⑤|
口④⑤⑥ |⑥-⑦-|
口口⑦口 |⑧-⑨-|
23
口口② |①---|
③口口 |②--③|
口④口 |④---|
口口口 |----|
24
②⑥⑤① |①②③④|
口④③口 |⑤⑥⑦⑧|
⑧口口⑦
口口口

口口口口
⑩口口⑨
口⑭⑬口 |⑨⑩⑪⑫|
⑯⑫⑪⑮ |⑬⑭⑮⑯|
25
|①---|
口口口口
口口口口
口口口口

口口口
②③④口 |--②③|
口口口口 |④---|
口口⑤口 |⑤---|
26
口口口口 |①---|
口口口口
口口口口


口口口口
口口⑤口 |--②③|
⑥②③④ |④-⑤-|
口⑦口 |⑥-⑦-|
27
口 |①②③-|
口口口②
口口口口
口①口口

口口口
口⑦口口 |--④⑤|
⑥⑤④⑧ |⑥-⑦-|
口⑨口口 |⑧-⑨-|
28
|①②③-|
②口口口
口口口口
口口①口

口口口
口口⑦口 |--④⑤|
⑧④⑤⑥ |⑥-⑦-|
口口⑨口 |⑧-⑨-|
29
口 |①②③-|
口口口②
口口口口
口①口口

口口口
口⑦口口 |--④⑤|
⑥⑤④⑧ |⑥-⑦-|
口⑨口口 |⑧-⑨-|
30
|①②③-|
②口口口
口口口口
口口①口

口口⑨
口⑧口口 |--④⑤|
口④⑤⑥ |⑥-⑦-|
口⑦口口 |⑧-⑨-|
31
②口口 |①---|
口口③ |②--③|
口④口 |④---|
口口口 |----|
32
口①②口 |①②③④|
⑤口口⑥ |⑤⑥⑦⑧|
③⑦⑧④
口口口

⑨口⑪口
口口口口
口口口口 |⑨---|
⑩⑩⑩⑩ |⑩--⑪|
33
口①⑥口 |①---|
⑤③②⑤ |--②③|
口口④口 |④---|
口口口口 |⑤--⑥|
34
口①口口 |①-②③|
口口⑥口 |④---|
口口④口 |----|
⑤③②⑤ |⑤--⑥|
35
②⑥⑤② |①---|
口①⑦口 |②--③|
口④③口 |④-⑤⑥|
口口⑧口 |⑦--⑧|
36
口口口④ |①-②③|
③口口② |④---|
口口口口
口①口口

口口口口
口口口⑦
⑥⑥口⑥ |--⑤-|
口口口⑤ |⑥-⑦-|
37
口口口① |①---|
①①②⑦ |②-③-|
口④口⑥ |④-⑤-|
口③口⑤ |⑥-⑦-|
38
④口口④ |①-②③|
口①①口 |④-⑤-|
口⑤⑤口
口③②口

口口口口
⑥⑨⑧⑦
⑥口口⑦ |⑥-⑦-|
口口口口 |--⑧⑨|
39
口口①口 |①---|
口口口口 |--②③|
口③②口
口口口口

⑧口⑦⑧
口⑥⑤口
口口口口 |④-⑤⑥|
口口④口 |⑦-⑧-|
40
口口口口 |①---|
口④③口 |②--③|
②口口② |④---|
①口⑤① |⑤---|
41
口口口 |①---|
口口口
口口口
口口口口

口口口
口②口口 |--②③|
口③口⑤ |④---|
口④口口 |⑤---|
42
口口口口 |①---|
口⑥②口 |--②③|
①⑤③口 |④---|
口口④口 |--⑤⑥|
43
口①口口 |①---|
口口②口 |--②③|
⑤口③口 |④---|
口口④口 |⑤---|
44
口口口口 |①---|
口②口口 |--②③|
口③口① |④---|
口④口口 |----|
45
口①③② |①--②|
③口口口 |--③-|
口口口③
②③①口

④④口口
口口口口
口口口口 |----|
口口口口 |④---|
46
口口口口 |①---|
口②口⑤ |--②③|
口③口口 |④-⑤-|
口④①① |----|
47
口口口口 |①---|
①口②口 |--②③|
口口③口 |④---|
口口④口 |----|
48
口④口口 |①---|
①③口口 |--②③|
口②口口 |④---|
口口口口 |----|
49
⑪⑩⑨⑧ |①---|
⑦⑥⑤④ |--②③|
口③②口 |④⑤⑥⑦|
口口①口 |⑧⑨⑩⑪|
50
口口口口 |①---|
口②口⑤ |--②③|
口③口口 |④-⑤-|
口④①① |----|
51
口口口口 |①---|
①口②口 |--②③|
口口③口 |④---|
口口④口 |----|
52
口口口口 |①---|
口口③口 |--②-|
④①口② |③---④-|
口口⑤口 |--⑤---|
53
①①①① |①---|
口口口口 |----|
口口口口 |----|
口口口口 |----|
54
⑦①①⑥ |①---②-|
口口⑤② |--③-④-|
口④③② |⑤-⑥---|
⑥⑧⑧⑦ |⑦---⑧-|
55
⑥口口⑦ |①---②-|
①⑤口② |--③-④-|
①③④② |⑤-⑥---|
⑦⑧⑧⑥ |⑦---⑧-|
56
⑦口口⑥ |①---②-|
②口⑤① |--③-④-|
②④③① |⑤-⑥---|
⑥⑧⑧⑦ |⑦---⑧-|
57
⑥口口⑦ |①---②-|
①⑤口② |--③-④-|
①③④② |⑤-⑥---|
⑦⑧⑧⑥ |⑦---⑧-|
58
⑦口口⑥ |①---②-|
②口⑤① |--③-④-|
②④③① |⑤-⑥---|
⑥⑧⑧⑦ |⑦---⑧-|
59
⑥口口⑦ |①---②-|
①⑤口② |--③-④-|
①③④② |⑤-⑥---|
⑦⑧⑧⑥ |⑦---⑧-|
60
⑦口口⑥ |①---②-|
②口⑤① |--③-④-|
②④③① |⑤-⑥---|
⑥⑧⑧⑦ |⑦---⑧-|
61
⑥口口⑦ |①---②-|
①⑤口② |--③-④-|
①③④② |⑤-⑥---|
⑦⑧⑧⑥ |⑦---⑧-|
62
口①①口 |①---|
口⑥③口 |----②-|
②④⑦口 |③-④-⑤-|
口⑧⑤口 |⑥-⑦-⑧-|
63
⑦④③⑥ |①---②-|
②口⑤① |--③-④-|
②口口① |⑤-⑥---|
⑥⑧⑧⑦ |⑦---⑧-|
64
⑦口口⑧ |①-②-③-|
④⑤口③ |--④-⑤-|
⑥口②① |⑥-⑦---|
⑧⑨⑨⑦ |⑧---⑨-|
65
⑧口口⑦ |①-②-③-|
⑥口②① |--④-⑤-|
④⑤口③ |⑥-⑦---|
⑦⑨⑨⑧ |⑧---⑨-|
66
⑦口口⑧ |①-②-③-|
④⑤口③ |--④-⑤-|
⑥口②① |⑥-⑦---|
⑧⑨⑨⑦ |⑧---⑨-|
67
⑧口口⑦ |①-②-③-|
⑥口②① |--④-⑤-|
④⑤口③ |⑥-⑦---|
⑦⑨⑨⑧ |⑧---⑨-|
68
⑦口口⑧ |①-②-③-|
④⑤口③ |--④-⑤-|
⑥口②① |⑥-⑦---|
⑧⑨⑨⑦ |⑧---⑨-|
69
④①①④ |①---②-|
⑤②②⑤ |--③---|
⑥③③⑥ |④---⑤-|
口口口口 |--⑥---|
70
口②②口 |①---|
口①①口 |②---|
口口口口
口口口口

口口口口
口⑤口口
③口口⑥ |--③-④-|
口⑦④口 |⑤-⑥-⑦-|
71
②②①① |①---|
口口口口 |②---|
口口口口 |③---|
④④③③ |④---|
72
口①口⑧ |①-②-|
⑦口②口 |③-④-|
口③口⑥ |⑤-⑥-|
⑤口④口 |⑦-⑧-|
73
口⑥口口 |①②③④|
口②③口 |⑤⑥⑦⑧|
口④①⑦
口⑧⑤口

⑯口⑬口
⑩⑭口⑪
口口⑮口 |⑨⑩⑪⑫|
⑫口口⑨ |⑬⑭⑮⑯|
74
口口口③ |①②③④|
⑥口①口 |⑤⑥⑦⑧|
④②口⑤
⑧口口⑦

口⑯⑨口
口⑩⑮口
口⑭⑪口 |⑨⑩⑪⑫|
口⑫⑬口 |⑬⑭⑮⑯|
75
口口⑤③ |①②③④|
④⑥口口 |⑤⑥⑦⑧|
②口口①
⑧口口⑦

口⑫口⑮
口口口⑪
⑭⑩⑨⑬ |⑨⑩⑪⑫|
口⑯口口 |⑬⑭⑮⑯|
76
②⑧①口 |①②③④|
口④③口 |⑤⑥⑦⑧|
口⑥⑤口
口口口⑦

⑭口口⑬
⑫口口⑮
⑩口口⑪ |⑨⑩⑪⑫|
⑯口⑨口 |⑬⑭⑮⑯|
77
口⑥口口 |①②③④|
口②③口 |⑤⑥⑦⑧|
口④①⑦
口⑧⑤口

⑯口⑬口
⑩⑭口⑪
口口⑮口 |⑨⑩⑪⑫|
⑫口口⑨ |⑬⑭⑮⑯|
78
口口口③ |①②③④|
⑥口①口 |⑤⑥⑦⑧|
④②口⑤
⑧口口⑦

口⑯⑨口
口⑩⑮口
口⑭⑪口 |⑨⑩⑪⑫|
口⑫⑬口 |⑬⑭⑮⑯|
79
⑫⑯⑤① |①②③④|
②⑥⑬⑨ |⑤⑥⑦⑧|
⑩⑭⑦③ |⑨⑩⑪⑫|
④⑧⑮⑪ |⑬⑭⑮⑯|
80
⑧⑯⑨① |①②③④|
②⑩⑮⑤ |⑤⑥⑦⑧|
⑥⑭⑪③ |⑨⑩⑪⑫|
④⑫⑬⑦ |⑬⑭⑮⑯|
81
②口口② |①---|
①口口① |②---|
口④③口 |----|
口⑥⑤口 |③④⑤⑥|
82
②③③② |①--②|
⑦①①⑤ |--③-|
口口口口 |④-⑤-|
⑥口口④ |⑥-⑦-|
83
口口口口 |①---|
口口④口 |--②③|
口①①口 |④---|
口③②口 |----|
84
⑩⑤⑥① |①-②-③-|
口⑨⑧口 |④-⑤-⑥-|
口③②口 |⑦-⑧-⑨-|
⑦⑪⑫④ |⑩-⑪-⑫-|
85
口口口口 |①|
口口口口

口口口口

口口口口 |②--|
口口口口 |----|
口口 |----|
口口口口 |----|

不確定度: 0

最終更新:2017年08月15日 23:36