Twinbee's Home Town Song
Sota Fujimori

EXTREME

Level: 9
BPM: 168
Notes: 698

1
口口口口 |----|
口口口口 |----|
口口口口 |----|
口口口口 |----|
2
①口口口 |----|
口口口口 |----|
口②口口 |----|
口口口口 |①---②-|
3
口口口口 |①-②-③-|
口②①口 |④-----|
⑤口③④ |⑤-----|
⑧⑥⑦口 |⑥-⑦-⑧-|
4
口口口口 |①---|
口口口口 |----|
口口口口 |----|
口口口① |----|
5
④口③② |①---②-|
口口口口 |③---|
口①口口 |----|
口口口口 |④---|
6
口口口口 |①---|
口口口口 |----|
口①①口 |----|
口口口口 |----|
7
⑥②③⑨ |①②③④|
①⑥⑨④ |⑤-⑥-|
口⑦⑧口 |⑦-⑧-|
口⑤⑤口 |⑨---|
8
口口⑥口 |①---|
①口口⑥ |②-③-|
口④⑤口 |--④-|
①③②口 |⑤-⑥-|
9
口口口口 |----|
①口口口 |----|
口口口口 |----|
①口口口 |①---|
10
口口口② |①---|
口②②① |②---|
②口口口
口口口①

口口⑤口
口口口⑤
口③④口 |--③-|
口口口口 |④-⑤-|
11
口①口口 |----|
①②口口 |----|
口口②口 |①---|
口口口口 |②---|
12
口⑥口口 |①---|
⑥口口① |②-③-|
口⑤④口 |--④-|
口②③① |⑤-⑥-|
13
口口口口 |----|
口口口① |----|
口口口口 |----|
口口口① |①---|
14
②口口口 |①---|
①②②口 |②---|
口口口②
①口口口

口⑤口口
⑤口口口
口④③口 |--③-|
口口口口 |④-⑤-|
15
口口①口 |----|
口口②① |----|
口②口口 |①---|
口口口口 |②---|
16
④⑥⑤口 |①-②-|
口③口口 |③-④-|
②⑤⑥口 |--⑤-|
口①口口 |--⑥-|
17
口⑤⑥④ |①-②-|
口口③口 |③-④-|
口⑥⑤② |--⑤-|
口口①口 |--⑥-|
18
④⑥⑤口 |①-②-|
口③口口 |③-④-|
②⑤⑥口 |--⑤-|
口①口口 |--⑥-|
19
口口⑥④ |①-②-|
口⑤③⑤ |③-④-|
口口⑥② |--⑤-|
口口①口 |⑥---|
20
⑥口口⑤ |①-②-|
⑤口口⑥ |③-④-|
③②口口 |--⑤-|
①④口口 |--⑥-|
21
⑤口口⑥ |①-②-|
⑥口口⑤ |③-④-|
口口②③ |--⑤-|
口口④① |--⑥-|
22
⑤口口⑥ |①-②-|
口口口⑤ |③-④-|
③②⑦口 |--⑤-|
①④口口 |⑥-⑦-|
23
口④口口 |①-②-|
③口口口 |③-④-|
口②口①
①口②口

⑤口口口
口⑥口⑦
口口口⑧ |⑤-⑥-|
口口口⑨ |⑦⑧⑨-|
24
口口①① |①---|
①口口口 |②-③-|
①口口口
③口②口

口口⑥口
口口⑤④
口口④⑤ |--④-|
口⑥口口 |⑤-⑥-|
25
①口口③ |--①-|
②⑥③口 |--②-|
④⑤⑤口 |③-④-|
口口口⑤ |⑤-⑥-|
26
口口③口 |①-②-|
②口口① |--③-|
口口口①
口口口口

④口口⑤
口口口⑥
口口口口 |④-⑤-|
口口口口 |--⑥-|
27
口口口口 |--①-|
口口口口 |--②-|
口口口①
口口口②

④④口口
口口口口
③口口⑤ |③-④-|
口口口口 |--⑤-|
28
口口①② |①---|
③口②③ |②-③-|
口②①口
②口口口

口口口口
口④口口
口口⑤口 |--④-|
口⑥口口 |⑤-⑥-|
29
①①口② |①---|
③④②③ |②-③-|
口②⑤口 |--④-|
②⑥口口 |⑤-⑥-|
30
①①口② |①---|
口口②口 |②-③-|
③②口③ |----|
②口口口 |----|
31
②口①① |①---|
口②口口 |②-③-|
③口②③ |----|
口口口② |----|
32
②口①① |①---|
③②④③ |②-③-|
口⑤②口 |--④-|
口口⑥② |⑤-⑥-|
33
②口①① |①---|
③②④③ |②-③-|
口⑤②口 |--④-|
口口⑥② |⑤-⑥-|
34
②口①① |①---|
口②口口 |②-③-|
③口②③ |----|
口口口② |----|
35
⑦⑦口① |①-②-|
⑦⑦②口 |③-④-|
口③⑥口 |--⑤⑥|
④⑤口口 |⑦---|
36
口口②② |①---|
口口口口 |--②-|
③口口① |----|
口③①口 |③---|
37
①①口② |--①-|
②口口口 |----|
口口口口 |②---|
③口口③ |③---|
38
口②口② |①---|
口③②③ |--②-|
①③③③ |③---|
口①口口 |----|
39
②口口口 |----|
口①口口 |----|
②口口口 |①---|
口①口口 |②---|
40
口③①口 |①---|
③口口① |--②-|
口口口口 |----|
口口②② |③---|
41
②口口口 |--①-|
口口口② |----|
③口口③ |②---|
①①口口 |③---|
42
口①口口 |①---|
①③③③ |--②-|
口③②③ |③---|
口②口② |----|
43
口①②口 |----|
口③④口 |----|
口⑤⑥口 |①②③④|
口⑦⑧口 |⑤⑥⑦⑧|
44
①口口② |①-②-|
③口口④ |③-④-|
⑤⑧⑦⑥ |⑤-⑥-|
口口⑨口 |⑦⑧⑨-|
45
②口口① |①-②-|
④口口③ |③-④-|
⑥⑦⑧⑤ |⑤-⑥-|
口⑨口口 |⑦⑧⑨-|
46
①口口② |①-②-|
③口口④ |③-④-|
⑤⑧⑦⑥ |⑤-⑥-|
口口⑨口 |⑦⑧⑨-|
47
口①②口 |①②③④|
⑤③④⑥ |⑤-⑥-|
⑦⑨⑩⑧ |⑦-⑧-|
口⑪口口 |⑨⑩⑪-|
48
②口口① |①-②-|
④口口③ |③-④-|
⑥⑦⑧⑤ |⑤-⑥-|
口⑨口口 |⑦⑧⑨-|
49
①口口② |①-②-|
③口口④ |③-④-|
⑤⑧⑦⑥ |⑤-⑥-|
口口⑨口 |⑦⑧⑨-|
50
②口口① |①-②-|
④口口③ |③-④-|
⑥⑦⑧⑤ |⑤-⑥-|
口⑨口口 |⑦⑧⑨-|
51
口②①口 |①②③④|
⑥④③⑤ |⑤-⑥-|
⑧⑩⑨⑦ |⑦-⑧-|
口口⑪口 |⑨⑩⑪-|
52
①⑤⑥② |①-②-|
③⑦⑧④ |③-④-|
口⑨⑩口 |⑤⑥⑦⑧|
口⑪⑫口 |⑨⑩⑪⑫|
53
②⑥⑤① |①-②-|
④⑧⑦③ |③-④-|
口⑩⑨口 |⑤⑥⑦⑧|
口⑫⑪口 |⑨⑩⑪⑫|
54
①⑤⑥② |①-②-|
③⑦⑧④ |③-④-|
口⑨⑩口 |⑤⑥⑦⑧|
口⑪⑫口 |⑨⑩⑪⑫|
55
⑥⑦⑧口 |①②③④|
⑤⑨⑩口 |⑤-⑥-|
③⑪⑫④ |⑦⑧⑨⑩|
①⑬⑭② |⑪⑫⑬⑭|
56
②口口① |①--②|
④口口③ |--③-|
②口口① |-④--|
④口口③ |----|
57
⑤口口③ |①②-③|
口⑥④口 |--④-|
⑤②①③ |-⑤--|
口⑥④口 |⑥---|
58
③口口① |①--②|
口口口② |--③-|
③口口①
口口口②

口口口口
④口口口
口口⑤⑥ |-④--|
④口口口 |⑤⑥--|
59
⑧⑤④⑧ |--①②|
⑥①②③ |③④⑤⑥|
⑧⑦⑦⑧ |⑦---|
口⑦⑦口 |⑧---|
60
口口口口 |①---|
②口口① |②-③-|
口口口口
③口口口

⑥口⑤⑥
口口口⑤
口口⑥④ |--④-|
口口④口 |⑤-⑥-|
61
口②⑤口 |--①-|
②⑥③⑤ |②-③-|
①③⑥④ |--④-|
③①④⑥ |⑤-⑥-|
62
口②⑤⑥ |--①-|
②⑥③⑥ |②-③-|
①③⑤④ |--④-|
③①④口 |⑤-⑥-|
63
③②口口 |--①-|
③口③口 |②-③-|
①②口口
口①口口

口口⑤⑥
口⑤口⑤
⑥口⑤④ |--④-|
口⑥④口 |⑤-⑥-|
64
⑥①⑤⑥ |①---|
②口口⑤ |②-③-|
口口⑥④ |--④-|
③口④口 |⑤-⑥-|
65
口②⑤口 |--①-|
②⑥③⑤ |②-③-|
①③⑥④ |--④-|
③①④⑥ |⑤-⑥-|
66
口②⑤⑥ |--①-|
②⑥③⑥ |②-③-|
①③⑤④ |--④-|
③①④口 |⑤-⑥-|
67
③②口口 |--①-|
③口③口 |②-③-|
①②口口
口①口口

口口⑤⑥
口⑤口⑤
⑥口⑤④ |--④-|
口⑥④口 |⑤-⑥-|
68
⑤①口⑤ |①---|
口口②口 |②-③-|
口⑤⑤口 |--④-|
口④③口 |⑤---|
69
口口口口 |①---|
口口口口 |②---|
①口口②
口口口口

口口④③
口口③④
④③口口 |③---|
③④口口 |④---|
70
②③口② |①---|
①①③口 |--②-|
④③①① |③---|
口口③口 |④---|
71
口口口口 |①---|
口口口口 |②---|
口②口①
口口口口

口口口④
④③口③
③口③④ |③---|
④口口口 |④---|
72
③①①⑤ |①---|
④口口④ |②-③-|
口③⑤口 |--④-|
口②②口 |⑤---|
73
②①④③ |①---|
口口③④ |②---|
④③口口 |③---|
③④口口 |④---|
74
②口口② |①---|
①①口口 |--②-|
口口①①
口口口口

口③口口
口口③口
口③④口 |③---|
口口③口 |④---|
75
⑦②⑦⑧ |①---|
口⑧③口 |②③④⑤|
①④口① |⑥-⑦-|
口⑥⑤⑥ |⑧---|
76
口口口口 |①-②-③-|
③⑨⑩④ |④-⑤-⑥-|
⑤⑪⑧② |⑦-⑧-⑨-|
①⑦⑫⑥ |⑩-⑪-⑫-|
77
口⑪⑫口 |①-②-③-|
③⑨⑩④ |④-⑤-⑥-|
⑤口⑧② |⑦-⑧-⑨-|
①⑦口⑥ |⑩-⑪-⑫-|
78
①口口② |①-②-③-|
③口口④ |④-----|
口口口口 |----|
口口口口 |----|

不確定度: 0

最終更新:2017年08月15日 23:34