キミとワタシのオンガク
seiya-murai feat. ALT

ADVANCED

Level: 7
BPM: 160
Notes: 493

1
口口①口 |----|
口口口口 |----|
口口口口 |----|
口口口口 |①---|
2
口口口口 |①---|
⑤①口口 |②---|
④口②口 |③---|
口③③口 |④-⑤-|
3
⑥口口⑤ |--①-|
口②①口 |②-③-|
口④③口 |④-⑤-|
口口口口 |⑥---|
4
口③④⑦ |--①-|
口⑤⑥口 |②-③④|
口口②口 |-⑤⑥-|
口口①口 |--⑦-|
5
口口⑤口 |①-②-|
①口口口 |③-④-|
口④④② |----|
③口口口 |⑤---|
6
口口口口 |①---|
⑤①口口 |②---|
④口②口 |③---|
口③③口 |④-⑤-|
7
⑥口口⑤ |--①-|
口②①口 |②-③-|
口④③口 |④-⑤-|
口口口口 |⑥---|
8
口③④口 |--①-|
口⑤⑥口 |②-③④|
口⑦②口 |-⑤⑥-|
口口①口 |--⑦-|
9
①口口① |①--②|
②⑥⑤② |--③-|
③口口③ |④-⑤-|
口④④口 |⑥---|
10
口⑨⑨④ |①-②③|
⑦口⑧⑤ |-④⑤⑥|
口③②⑥ |⑦-⑧-|
①口口① |⑨---|
11
④⑧口⑦ |①-②③|
⑤口口口 |-④⑤⑥|
⑥②③口 |⑦-⑧-|
①⑨⑨① |⑨---|
12
口口口④ |①-②③|
口③②⑤ |-④⑤⑥|
⑦⑧⑨⑥ |⑦-⑧-|
①口口① |⑨---|
13
口④⑤口 |①-②③|
⑧②③⑧ |-④⑤-|
口⑥⑥口 |⑥-⑦-|
①⑦⑦① |⑧---|
14
口⑧⑨口 |①-②③|
口②③口 |-④⑤⑥|
④⑤⑥⑦ |⑦-⑧-|
①口口① |⑨---|
15
⑨口口⑧ |①-②③|
口③②口 |-④⑤⑥|
⑦⑥⑤④ |⑦-⑧-|
口①①口 |⑨---|
16
⑧②③⑨ |①-②③|
④⑤⑥⑦ |-④⑤⑥|
口口口口 |⑦-⑧-|
口①①口 |⑨---|
17
⑥②③⑥ |①-②③|
口口⑦口 |-④⑤-|
①④⑤① |⑥---|
口口口口 |⑦---|
18
口口口口 |①---|
①④口口 |②---|
口②⑤③ |③---|
口口口口 |④-⑤-|
19
①口口② |--①-|
③口口④ |②-③-|
⑤口口⑥ |④-⑤-|
口口口口 |⑥---|
20
⑤口口⑤ |--①-|
口③④⑥ |②-③④|
口口①口 |--⑤-|
口口②口 |--⑥-|
21
口④④口 |①-②-|
③口口⑤ |③-④-|
口②①口 |----|
口口口口 |⑤---|
22
口口口口 |①---|
口①④口 |②---|
③⑤②口 |③---|
口口口口 |④-⑤-|
23
②口口① |--①-|
④口口③ |②-③-|
⑥口口⑤ |④-⑤-|
口口口口 |⑥---|
24
口④③口 |--①-|
口⑥⑤口 |②-③④|
口①⑦口 |-⑤⑥-|
口②口口 |--⑦-|
25
①口口① |①--②|
②④④② |--③-|
③口口③ |④---|
口口口口 |----|
26
④⑥⑥① |①---|
口口⑤口 |②-③-|
口②③口 |④---|
口口口口 |⑤-⑥-|
27
口口口口 |--①-|
①口口① |--②-|
口②②口
口口口口

④口口口
⑤口口口
口口口口 |③---|
口③③口 |④-⑤-|
28
口口口⑥ |①-②-|
口口口⑤ |③-④-|
①⑦⑦④ |⑤-⑥-|
②口口③ |⑦---|
29
⑥②③口 |①-②③|
⑦④⑤口 |-④⑤-|
⑧口口口 |⑥-⑦-|
口①①口 |⑧---|
30
④⑥⑥① |①---|
口口⑤口 |②-③-|
口②③口 |④---|
口口口口 |⑤-⑥-|
31
口口口口 |--①-|
①口口① |--②-|
口②②口
口口口口

口口口④
口口口⑤
口口口口 |③---|
口③③口 |④-⑤-|
32
口口口口 |①-②-|
口④⑤口 |③-④⑤|
口⑥⑦① |-⑥⑦-|
③⑧口② |--⑧-|
33
①口口① |①--②|
②④④② |--③-|
③⑤口③ |④-⑤-|
口口⑥口 |⑥---|
34
④③②① |①-②-|
口⑦口口 |③-④-|
口⑤⑥口 |⑤-⑥-|
口口口口 |--⑦-|
35
③口①口 |--①-|
④口口口 |--②-|
⑤口②口 |--③-|
口口口口 |④-⑤-|
36
口口口口 |----|
口口口口 |----|
口口口口 |----|
口口口口 |----|
37
口口口口 |----|
口口口② |----|
口口口① |----|
口口口口 |①-②-|
38
口②口① |①---|
⑥口③⑦ |②-③-|
口④口口 |④-⑤-|
口口⑤口 |⑥-⑦-|
39
口②口口 |--①-|
口④④口 |--②-|
③口①口 |--③-|
口口口口 |--④-|
40
口口口口 |----|
口口口口 |----|
口口口口 |----|
口口口口 |----|
41
①口口口 |----|
口②口口 |----|
口口口口 |①---|
口口口口 |②---|
42
口口口口 |①---|
口口口口 |----|
口口①口 |----|
口口口口 |----|
43
⑥④口⑤ |----|
口口③口 |①-②-|
口②口口 |③-④-|
口口①口 |⑤-⑥-|
44
口口口口 |----|
口口口口 |----|
口口口口 |----|
口口口口 |----|
45
口口口口 |----|
口口①口 |----|
口②口口 |①---|
口口口口 |②---|
46
口口口口 |①---|
口口口口 |----|
口口口口 |----|
口口①口 |----|
47
口①①口 |①---|
口②②口 |----|
口口口口 |②---|
口口口口 |----|
48
口③②口 |①---|
③口口② |②-③-|
口口口口
口①①口

口口口口
口口口口
口④④口 |--④-|
口⑤⑤口 |--⑤-|
49
①口口① |--①-|
口②②口 |②-③-|
③⑤口③ |----|
口口④口 |④-⑤-|
50
②⑤⑤③ |①---|
口口①口 |②-③-|
口口口口 |--④-|
口④④口 |--⑤-|
51
①口口口 |----|
口②口口 |----|
口口口口 |①---|
口口口口 |②---|
52
口口②② |①---|
口口口口 |--②-|
口口①口 |----|
口口口口 |----|
53
口口口口 |----|
口口口① |----|
口口②口 |①---|
口口口口 |②---|
54
口口口口 |①---|
④口口口 |----|
③口口口 |--②-|
②①口口 |③-④-|
55
口口口口 |----|
口口口口 |----|
口①①口 |①---|
口②②口 |②---|
56
①②③口 |①-②-|
①②③口 |③-④-|
口口口④
口口口④

⑦⑧口口
⑦⑧口口
口⑥⑤口 |⑤-⑥-|
口⑥⑤口 |⑦-⑧-|
57
口口口① |--①-|
口口口② |②-③-|
口⑤⑤③ |④---|
口口口④ |⑤---|
58
②⑤⑤③ |①---|
口口①口 |②-③-|
口口口口 |--④-|
口④④口 |--⑤-|
59
口口口口 |----|
口口口口 |----|
②口口② |①---|
①口口① |②---|
60
①口口① |①---|
口口②口 |----|
口③口口 |--②-|
口口④口 |③-④-|
61
①口①口 |----|
口②口② |----|
口口口口 |①---|
口口口口 |②---|
62
口口口口 |①---|
口口口② |----|
①口①③ |--②-|
口口口④ |③-④-|
63
口口口口 |----|
口口口口 |----|
口②②口 |①---|
口①①口 |②---|
64
①②③口 |①-②-|
①②③口 |③-④-|
口口口④
口口口④

⑦⑧口口
⑦⑧口口
口⑥⑤口 |⑤-⑥-|
口⑥⑤口 |⑦-⑧-|
65
口口口① |--①-|
口④④口 |--②-|
口②口口 |③---|
口口③口 |④---|
66
口⑨⑨④ |①-②③|
⑦口⑧⑤ |-④⑤⑥|
口③②⑥ |⑦-⑧-|
①口口① |⑨---|
67
④⑧口⑦ |①-②③|
⑤口口口 |-④⑤⑥|
⑥②③口 |⑦-⑧-|
①⑨⑨① |⑨---|
68
口口口④ |①-②③|
口③②⑤ |-④⑤⑥|
⑦⑧⑨⑥ |⑦-⑧-|
①口口① |⑨---|
69
口④⑤口 |①-②③|
⑧②③⑧ |-④⑤-|
口⑥⑥口 |⑥-⑦-|
①⑦⑦① |⑧---|
70
口⑧⑨口 |①-②③|
口②③口 |-④⑤⑥|
④⑤⑥⑦ |⑦-⑧-|
①口口① |⑨---|
71
⑨口口⑧ |①-②③|
口③②口 |-④⑤⑥|
⑦⑥⑤④ |⑦-⑧-|
口①①口 |⑨---|
72
⑧②③⑨ |①-②③|
④⑤⑥⑦ |-④⑤⑥|
口口口口 |⑦-⑧-|
口①①口 |⑨---|
73
⑥②③⑥ |①-②③|
口⑦⑦口 |-④⑤-|
①④⑤① |⑥---|
口⑦⑦口 |⑦---|

不確定度: 0

最終更新:2017年08月15日 23:17