キミとワタシのオンガク
seiya-murai feat. ALT

EXTREME

Level: 9
BPM: 160
Notes: 667

1
①口口口 |----|
口口口口 |----|
口口口口 |----|
口口口口 |①---|
2
口口口口 |①---|
口①口⑤ |②---|
②口口④ |③---|
口③③口 |④-⑤-|
3
⑤①口⑥ |--①-|
口口②口 |②-③-|
⑤③口⑥ |④-⑤-|
口口④口 |⑥---|
4
口④口口 |--①-|
③口口口 |②-③④|
口口口口
口①②口

口口⑥口
口口口⑤
口口口口 |-⑤⑥-|
口⑦口口 |--⑦-|
5
口口口① |①-②-|
口②口口 |③-④-|
口口口③
④口口口

口口口⑤
口口口口
口口口口 |----|
口口口口 |⑤---|
6
口口口口 |①---|
⑤口①口 |②---|
④口口② |③---|
口③③口 |④-⑤-|
7
⑥口①⑤ |--①-|
口②口口 |②-③-|
⑥口③⑤ |④-⑤-|
口④口口 |⑥---|
8
口④⑥⑦ |--①-|
③口口⑤ |②-③④|
口①①口 |-⑤⑥-|
⑦②②口 |--⑦-|
9
①口口口 |①--②|
口②②口 |--③-|
口③③口
口口口①

⑥⑥⑤⑤
④口口④
口口口口 |④-⑤-|
⑤⑤⑥⑥ |⑥---|
10
⑨⑨⑦口 |①-②③|
④⑤⑥口 |-④⑤⑥|
①②③① |⑦-⑧-|
口⑧口口 |⑨---|
11
⑦口口⑧ |①-②③|
口⑥⑤④ |-④⑤⑥|
①③②① |⑦-⑧-|
口⑨⑨口 |⑨---|
12
⑨⑨口⑦ |①-②③|
④⑤⑥口 |-④⑤⑥|
①②③① |⑦-⑧-|
⑧口口口 |⑨---|
13
口口口口 |①-②③|
⑤口口④ |-④⑤-|
③口口②
口①①口

口⑦⑥口
口⑪⑧口
口⑫⑨口 |⑥-⑦-|
⑥⑬⑩⑦ |⑧⑨⑩⑪⑫⑬|
14
①⑥⑤① |①-②③|
口口口④ |-④⑤⑥|
③口口②
口口口口

⑨口口⑨
口口口口
口⑧⑦口 |⑦-⑧-|
口口口口 |⑨---|
15
⑦口口⑧ |①-②③|
口③②④ |-④⑤⑥|
①⑥⑤① |⑦-⑧-|
口⑨⑨口 |⑨---|
16
⑨⑨口⑦ |①-②③|
④②③口 |-④⑤⑥|
①⑤⑥① |⑦-⑧-|
口⑧口口 |⑨---|
17
口⑥⑥⑦ |①-②③|
⑥②③⑥ |-④⑤-|
口④⑤口 |⑥---|
①口口① |⑦---|
18
②口口口 |①---|
口①口口 |②---|
口⑤④口 |③---|
口③口口 |④-⑤-|
19
①口口⑥ |--①-|
口②③口 |②-③-|
⑤口口口 |④-⑤-|
口口④口 |⑥---|
20
口口④口 |--①-|
口口口③ |②-③④|
⑥②①口 |--⑤-|
口⑤⑤口 |--⑥-|
21
⑤⑤口口 |①-②-|
口①口③ |③-④-|
口口②口 |----|
口④④口 |⑤---|
22
口口口② |①---|
④口口⑤ |②---|
④①口⑤ |③---|
口③③口 |④-⑤-|
23
⑥⑥口① |--①-|
口口②口 |②-③-|
口③口口 |④-⑤-|
④口⑤⑤ |⑥---|
24
口⑥④口 |--①-|
⑤口口③ |②-③④|
⑦②①⑦ |-⑤⑥-|
口口口口 |--⑦-|
25
①口口① |①--②|
口②口口 |--③-|
口口③口
口口口口

⑧口口口
⑦口口口
⑥口口口 |④--⑤⑥⑦|
⑤口④④ |⑧---|
26
⑥口口⑥ |①---|
④④①① |②-③-|
口②③口 |④---|
口⑤⑤口 |⑤-⑥-|
27
④口口口 |--①-|
口口口口 |--②-|
①②③① |③---|
口⑤口口 |④-⑤-|
28
口口口① |①-②-|
④口⑤② |③--④|
口⑥⑥③ |⑤-⑥-|
口⑦⑦口 |⑦---|
29
①⑦⑦① |①-②③|
口③⑤口 |-④⑤-|
②⑧⑧④ |⑥-⑦-|
口⑥⑥口 |⑧---|
30
⑥口口⑥ |①---|
①①④④ |②-③-|
口口口口 |④---|
⑤③②⑤ |⑤-⑥-|
31
口⑤口口 |--①-|
④②②口 |--②-|
口①①口 |③---|
口③③口 |④-⑤-|
32
口口①口 |①-②-|
口⑤⑦② |③-④⑤|
④⑧⑧⑥ |-⑥⑦-|
口③③口 |--⑧-|
33
①①②② |①--②|
①⑥口② |--③-|
③口口④ |④-⑤-|
⑤③④口 |⑥---|
34
①口口③ |①-②-|
口⑤口口 |③-④-|
②口⑦④ |⑤-⑥-|
口⑥口口 |--⑦-|
35
口口口② |--①-|
①口⑤⑤ |--②-|
口口③③ |--③-|
口口④④ |④-⑤-|
36
④⑧口口 |①-②-|
③⑦口口 |③-④-|
②⑥口口 |⑤-⑥-|
①⑤口口 |⑦-⑧-|
37
口口④口 |①-②-|
口口③口 |③-④-|
口⑧②⑥ |⑤-⑥-|
⑦口①⑤ |⑦-⑧-|
38
⑥口⑤④ |①---|
口⑦①口 |②-③-|
口⑥③口 |④-⑤-|
⑦②口口 |⑥-⑦-|
39
口①口口 |--①-|
①口口口 |--②-|
口口口②
口口②口

口④口口
④口③口
口③口口 |--③-|
口口口口 |--④-|
40
口口⑧④ |①-②-|
口口⑦③ |③-④-|
口口⑥② |⑤-⑥-|
口口⑤① |⑦-⑧-|
41
口④口⑤ |①-②-|
口③⑥口 |③-④-|
口②口口 |⑤---|
口①口口 |⑥---|
42
②口口⑥ |①-②-|
口③⑦口 |③-④-|
口⑧④① |⑤-⑥-|
口口口⑤ |⑦-⑧-|
43
②口口口 |①---|
口③口口 |②-③-|
④⑦⑦口 |④-⑤-|
①⑤⑥口 |⑥-⑦-|
44
⑤③⑦① |①-②-|
④⑥②⑧ |③-④-|
口口口口 |⑤-⑥-|
口口口口 |⑦-⑧-|
45
⑤⑥口口 |①-②-|
⑥⑤口口 |③-④-|
口③口① |⑤---|
④口②口 |⑥---|
46
口口⑧④ |①-②-|
口口⑦③ |③-④-|
口口⑥② |⑤-⑥-|
口口⑤① |⑦-⑧-|
47
口口口口 |①---|
①口口① |----|
口口口口 |②---|
②口口② |----|
48
②③②③ |①---|
口①①口 |②-③-|
②口口③
口①①口

口口口口
口口口口
口④④口 |--④-|
口⑤⑤口 |--⑤-|
49
①②③口 |--①-|
①②③口 |②-③-|
口⑤⑤口 |--④-|
④⑥⑥④ |⑤-⑥-|
50
①⑤⑤① |①---|
⑤口口⑤ |②-③-|
②口口③ |--④-|
口④④口 |--⑤-|
51
②口②口 |----|
口②口口 |----|
口①口① |①---|
口口①口 |②---|
52
③③口④ |①---|
①口②① |--②-|
口②口口 |③---|
口口③③ |--④-|
53
口口口口 |--①②|
口①④口 |③-④⑤|
口⑤②口 |⑥---|
⑦③⑥口 |⑦---|
54
口口④口 |①---|
口③口口 |----|
②口口口 |--②-|
口口口① |③-④-|
55
口口②口 |----|
口口口口 |----|
②口①口 |①---|
口口口① |②---|
56
①⑦⑦④ |①-②-|
口②⑤口 |③-④-|
口⑥③口 |⑤-⑥-|
⑧①④⑧ |⑦-⑧-|
57
口口口口 |--①-|
④口口② |②-③-|
③④②① |④---|
⑤③①⑤ |⑤---|
58
口口①① |①---|
口②③① |②-③-|
口③②口
口口口口

⑤口口⑤
口口口口
口口口口 |--④-|
口④④口 |--⑤-|
59
口口④⑤ |--①-|
③②⑤④ |②-③-|
④⑤①口 |④---|
⑤④口口 |⑤---|
60
①口口⑥ |①-②-|
口①⑦口 |③-④-|
⑤⑧①② |⑤-⑥-|
口④③① |⑦-⑧-|
61
口口口口 |--①-|
口口⑤④ |②-③-|
口口⑤④ |④---|
口①②③ |⑤---|
62
口口③② |①---|
口①口口 |②-③-|
口①口口
口口口口

④口口口
口⑤口口
口口⑥口 |--④-|
口口口口 |⑤-⑥-|
63
口口口① |----|
口口②口 |----|
口②口口 |①---|
①口口口 |②---|
64
①⑦⑦④ |①-②-|
口②⑤口 |③-④-|
口⑥③口 |⑤-⑥-|
⑧①④⑧ |⑦-⑧-|
65
①④④① |--①-|
口②③口 |--②-|
口口口口 |③---|
口②③口 |④---|
66
⑨⑨⑦⑦ |①-②③|
④⑤⑥口 |-④⑤⑥|
①②③① |⑦-⑧-|
口⑧⑧口 |⑨---|
67
⑦⑦⑧⑧ |①-②③|
口⑥⑤④ |-④⑤⑥|
①③②① |⑦-⑧-|
口⑨⑨口 |⑨---|
68
⑨⑨⑦⑦ |①-②③|
④⑤⑥口 |-④⑤⑥|
①②③① |⑦-⑧-|
⑧口口⑧ |⑨---|
69
口口口口 |①-②③|
⑤口口④ |-④⑤-|
③口口②
口①①口

口⑦⑥口
口⑪⑧口
口⑫⑨口 |⑥-⑦-|
⑥⑬⑩⑦ |⑧⑨⑩⑪⑫⑬|
70
①⑥⑤① |①-②③|
口口口④ |-④⑤⑥|
③口口②
口口口口

⑨口口⑨
口口口口
口⑧⑦口 |⑦-⑧-|
口口口口 |⑨---|
71
⑦⑦⑧⑧ |①-②③|
口③②④ |-④⑤⑥|
①⑥⑤① |⑦-⑧-|
口⑨⑨口 |⑨---|
72
⑨⑨⑦⑦ |①-②③|
④②③口 |-④⑤⑥|
①⑤⑥① |⑦-⑧-|
口⑧⑧口 |⑨---|
73
⑩⑨⑧⑦ |①-②③|
⑥②③⑥ |-④⑤-|
口④⑤口 |⑥--⑦⑧⑨|
①⑥⑥① |⑩---|

不確定度: 0

最終更新:2017年08月15日 23:17