秘密がーる♡乙女
MaMiKa(松下×mitsu×T.kakuta)

EXTREME

Level: 9
BPM: 180
Notes: 703

1
口口口口 |----|
口口口口 |----|
口口口口 |----|
口口口口 |----|
2
口口口口 |----|
口口口口 |----|
口口口口 |----|
口口口口 |----|
3
⑤⑤口口 |①-②-|
⑧口①① |③-④-|
②口④⑥ |⑤-⑥-|
口③⑦口 |⑦-⑧-|
4
③③③① |①--②|
口①②① |--③-|
口②②口 |--④-|
口④⑤⑥ |⑤-⑥-|
5
④③②口 |--①-|
⑤口①⑥ |②-③-|
口口口⑦ |④-⑤-|
口口口口 |⑥-⑦-|
6
④③③④ |①--②|
口①①口 |--③-|
③①②⑥ |--④-|
口②⑤② |⑤-⑥-|
7
⑥口⑤⑤ |①-②-|
①①口⑧ |③-④-|
④口②口 |⑤-⑥-|
⑦③口口 |⑦-⑧-|
8
④①③④ |①--②|
①②②口 |--③-|
③②①③ |--④-|
口⑥⑤口 |⑤-⑥-|
9
④⑥③口 |--①-|
②口口口 |②-③-|
口口①口 |④-⑤-|
口口⑤⑦ |⑥-⑦-|
10
④④③③ |①---|
②②①① |②---|
①①②② |③---|
③③④④ |④---|
11
口口口口 |①-②-|
⑧④⑤① |③-④-|
⑥②③⑦ |⑤-⑥-|
口口口口 |⑦-⑧-|
12
④④④④ |--①-|
口③③口 |②-③-|
口②②口 |④---|
口①①口 |----|
13
口口口② |①---|
口口口③ |--②-|
口④口口 |③--④|
口①①⑤ |--⑤-|
14
口口③口 |①--②|
②口口口 |--③-|
口口①口 |----|
口口口口 |----|
15
口口口① |①--②|
口②口① |--③-|
⑤口口③ |--④-|
⑥口④口 |⑤-⑥-|
16
②口③口 |①--②|
口口④口 |-③④⑤|
口⑥⑤口 |⑥---|
口①口口 |----|
17
口口口① |①--②|
口口②① |--③-|
③口口口
口口口口

口口口口
口口口⑦
口口口口 |④⑤⑥-|
④⑤⑥口 |--⑦-|
18
口⑥⑤④ |①--②|
口口③口 |--③-|
②口口① |--④-|
口口口口 |⑤-⑥-|
19
②口⑤口 |--①-|
口④口③ |--②-|
口④⑤③ |③--④|
①①①① |--⑤-|
20
④口口⑤ |①-②③|
③⑥口⑦ |④-⑤-|
②⑧口⑨ |⑥-⑦-|
口①口口 |⑧-⑨-|
21
口①①口 |①---|
口口口口 |--②-|
口③③口 |----|
②口口② |③---|
22
①口口① |①---|
口③③口 |--②-|
口口口口 |----|
②口口② |③---|
23
①口口① |①---|
口④口口 |--②-|
口口②口 |----|
口③口口 |③-④-|
24
⑦③②口 |①-②-|
③⑥⑤② |③-④-|
④④口口 |--⑤-|
口口①口 |⑥-⑦-|
25
口口①① |①---|
口口③① |--②-|
口口口口 |----|
口口②口 |③---|
26
口口③④ |①---|
口②口口 |②---|
①口口口 |③---|
①①口口 |④---|
27
口口⑥⑤ |①---|
口②⑦④ |②-③-|
口口③① |④-⑤-|
口口①① |⑥-⑦-|
28
①①口口 |①---|
①口口③ |②-③-|
口口口口 |----|
口口②口 |----|
29
口②③口 |--①-|
口⑥口④ |②-③-|
⑦①⑤口 |④-⑤-|
口口口口 |⑥-⑦-|
30
①③④① |①---|
口口②口 |②---|
口②口口 |③---|
口④③口 |④---|
31
②②口口 |①---|
①口口① |----|
①口口① |②---|
口口②② |----|
32
口⑤①① |①-②-|
②口④口 |③-④-|
口③口口 |⑤---|
①①口口 |----|
33
口口②口 |--①-|
口口口③ |②-③-|
⑦口①④ |④-⑤-|
口⑥⑤口 |⑥-⑦-|
34
口②④口 |①-②-|
①④口口 |③-④-|
口口③口 |----|
口口口口 |----|
35
口②口口 |--①-|
③口口口 |②-③-|
④①口⑦ |④-⑤-|
口⑤⑥口 |⑥-⑦-|
36
③口①③ |①---|
口口口口 |②-③-|
口②②口 |----|
口口口口 |----|
37
口④⑤口 |--①-|
③口口⑥ |②-③-|
②口口⑦ |④-⑤-|
口①口口 |⑥-⑦-|
38
④口口口 |①-②-|
口④③口 |③-④-|
②口口口 |----|
口口①口 |----|
39
口④③口 |--①-|
⑤口口② |--②-|
⑥①口口 |③-④-|
口口①口 |⑤-⑥-|
40
口口⑦口 |①-②-|
口④⑥④ |③-④-|
口③⑤③ |--⑤-|
口①②口 |⑥-⑦-|
41
①口口口 |----|
口②口口 |①---|
③口口口 |②---|
口口口口 |③---|
42
口⑤⑥口 |①-②-|
口⑦⑧口 |③-④-|
口③④口 |⑤-⑥-|
口①②口 |⑦-⑧-|
43
口⑦⑥口 |①-②-|
①口口⑤ |③-④-|
②口④口 |⑤-⑥-|
口③⑧口 |⑦-⑧-|
44
③口口② |①-②-|
口④④口 |③-④-|
①④④① |----|
②口口③ |----|
45
口③②口 |①-②-|
⑦⑥⑤② |③-④-|
①④④③ |--⑤-|
口①口口 |⑥-⑦-|
46
⑦③①口 |①-②-|
口⑥⑤① |③-④-|
②④④③ |--⑤-|
口②口口 |⑥-⑦-|
47
口①①口 |----|
口口口口 |①---|
①③③① |②---|
②口口② |③---|
48
①②②① |①---|
②①①② |②---|
③④④③ |③---|
④③③④ |④---|
49
①④③⑤ |①-②-|
口④口② |③-④-|
口口⑥口 |--⑤-|
口口口口 |--⑥-|
50
①④③口 |①-②-|
口④⑤② |③-④-|
口⑥口口 |--⑤-|
口口⑦口 |⑥-⑦-|
51
口③口① |①-②-|
口口⑤④ |③-④-|
②⑥口④ |--⑤-|
⑦口口口 |⑥-⑦-|
52
①③②⑤ |①---|
③①④② |②-③-|
②④①③ |--④-|
⑤②③① |⑤---|
53
口③②口 |①-②-|
口①口② |③-④-|
口口①③
口④④口

⑤口口⑥
口口口口
口口⑦口 |--⑤-|
口口口口 |⑥-⑦-|
54
⑦②③⑥ |①-②-|
②口①口 |③-④-|
③①口口 |--⑤-|
口④④⑤ |⑥-⑦-|
55
④①②④ |----|
①①②② |①---|
②④④① |②---|
③③③③ |③-④-|
56
口①①口 |----|
①口口① |--①-|
口口口口 |--②-|
③③②② |③---|
57
①③③② |----|
口口口口 |①---|
①口口② |②---|
口口口口 |③---|
58
口④④口 |①---|
②口口② |②---|
口口口口 |③---|
③①①③ |④---|
59
口口口口 |①---|
口口口口 |----|
口口口口
口①①口

②口口②
口②②口
口口口口 |②---|
口口③③ |--③-|
60
口⑤口口 |①-②-|
②口④口 |③-④-|
口③口口 |⑤---|
①①口口 |----|
61
口口口④ |①-②-|
口⑤⑥① |③-④-|
口口②⑦ |--⑤-|
口口③口 |⑥-⑦-|
62
④口口口 |①-②-|
①⑥⑤口 |③-④-|
⑦②口口 |--⑤-|
口③口口 |⑥-⑦-|
63
口口①口 |①-②-|
⑤口口② |③-④-|
口⑥③口 |--⑤-|
⑦口④口 |⑥-⑦-|
64
②①②① |①---|
口②①口 |②---|
口④③口 |③---|
④③④③ |④---|
65
③口口口 |①-②-|
④口②⑤ |③-④-|
⑦口⑥① |--⑤-|
口口口口 |⑥-⑦-|
66
口①口③ |①-②-|
口②④⑤ |③-④-|
口口⑥口 |--⑤-|
口⑦口口 |⑥-⑦-|
67
①口⑦③ |①-②-|
②⑥④口 |③-④-|
⑤口口口 |--⑤-|
口口口口 |⑥-⑦-|
68
①①口② |①-②-|
④口③口 |③-④-|
口③④② |--⑤-|
⑤⑤⑥⑥ |⑥---|
69
口口②口 |--①-|
口①口③ |②-③-|
⑦口口④ |④-⑤-|
口⑥⑤口 |⑥-⑦-|
70
口口③③ |①---|
①口口口 |②-③-|
口口②口 |----|
口口口口 |----|
71
口口④口 |--①-|
②口①⑤ |②-③-|
口口口⑥ |④-⑤-|
口③⑦口 |⑥-⑦-|
72
口④口④ |①-②-|
口①口口 |③-④-|
口②③口 |----|
口口口口 |----|
73
口口口口 |----|
口口口口 |①---|
②①①② |②---|
口③③口 |③---|
74
⑧口⑤口 |①-②-|
⑥④口① |③-④-|
口②③⑦ |⑤-⑥-|
口口口口 |⑦-⑧-|
75
口①口① |①---|
③口①② |②---|
④口口口 |③---|
③口口② |④---|
76
③口②④ |①---|
③①口④ |②---|
④口①③ |③---|
④②口③ |④---|
77
④口口口 |----|
⑧口⑤口 |----|
口②①口 |①②③④|
口⑥⑦③ |⑤⑥⑦⑧|
78
口②③① |①-②-|
口口⑥③ |③-④-|
口④④② |--⑤-|
口⑤口⑦ |⑥-⑦-|
79
①③②⑤ |①-②-|
③⑦⑦⑦ |③-④-|
②④④口 |--⑤-|
⑥口口⑥ |⑥-⑦-|
80
④①②④ |----|
口④④口 |①---|
①②②② |②---|
③①口③ |③-④-|
81
口①①口 |----|
①口口① |--①-|
口①①口 |--②-|
③③②② |③---|
82
①③③② |----|
③口口③ |①---|
口①②口 |②---|
口口口口 |③---|
83
②④④③ |①---|
④②③④ |②---|
②口口③ |③---|
①①①① |④---|
84
口口口口 |①---|
口口口口 |----|
口口口口 |②---|
②①①② |----|
85
⑤⑤⑤⑤ |①-②-|
②①④① |③-④-|
①③①口 |⑤---|
⑥⑥⑥⑥ |⑥---|

不確定度: 0

最終更新:2017年08月15日 23:18