Qubellic Prism
Nazzo-Non-Heat

ADVANCED

Level: 7
BPM: 170
Notes: 522

1
口口口口 |----|
口口口口 |----|
口口口口 |----|
口口口口 |----|
2
口口①① |①--②|
②②口口 |--③-|
口口③③
口口口口

口⑤⑤口
口口口口
口口口口 |-④--|
④④口口 |⑤---|
3
口口口口 |----|
口口口口 |----|
口口口口 |----|
口口口口 |----|
4
口口①口 |①---|
口②③① |--②-|
口③②口 |----|
口口口口 |--③-|
5
口口口① |----|
口②口口 |--①-|
口口②口 |----|
①口口口 |②---|
6
口①③口 |①---|
①口②③ |--②-|
④②口口 |--③-|
口④口口 |--④-|
7
口②③口 |-①--|
②⑥口③ |②--③|
口④⑤① |--④-|
口口①口 |⑤-⑥-|
8
口口口口 |①---|
口口①口 |--②-|
②口口口
口②口口

口口口口
口口③口
口③口口 |----|
口口口口 |--③-|
9
①口口口 |----|
口②口口 |--①-|
口口②口 |----|
口口口① |②---|
10
口口②口 |①---|
口口①② |--②-|
口①口口
口口口口

口③口口
③口口口
口④④口 |--③-|
口口口口 |--④-|
11
口口口口 |----|
口③②① |--①-|
④口口口 |②-③-|
口口口口 |--④-|
12
口口口口 |①-②-|
口口口口 |--③-|
口①②口 |④-⑤-|
⑥⑤④③ |⑥---|
13
口口口口 |①--②|
②口口③ |--③-|
口口①口
口口口口

口口口口
口⑤④口
口⑥⑥口 |④-⑤-|
口口口口 |--⑥-|
14
④③②① |--①-|
口⑦⑥⑤ |②-③-|
口口口口 |④-⑤-|
口口口口 |⑥-⑦-|
15
口口口口 |①---|
口口②② |----|
口口③③ |--②-|
①①口口 |--③-|
16
口口口口 |----|
②①口口 |--①-|
口口口口 |----|
①②口口 |②---|
17
口口②② |①---|
口口③③ |----|
①①口口 |--②-|
口口口口 |--③-|
18
①①②② |----|
口③③口 |①---|
口口口口 |②---|
口口口口 |③---|
19
口口口口 |①---|
口口②② |----|
口口③③ |--②-|
①①口口 |--③-|
20
口口口口 |----|
②①口口 |--①-|
口口口口 |----|
①②口口 |②---|
21
口口口④ |①---|
口口口③ |--②-|
①①口② |--③-|
口口口口 |--④-|
22
①口①口 |----|
口②口② |①---|
口口口口 |--②-|
口口口口 |----|
23
口口口口 |①---|
口口②② |----|
口口③③ |--②-|
①①口口 |--③-|
24
口口口口 |----|
②①口口 |--①-|
口口口口 |----|
①②口口 |②---|
25
口口②② |①---|
口口③③ |----|
①①口口 |--②-|
口口口口 |--③-|
26
①①②② |----|
口③③口 |①---|
口口口口 |②---|
口口口口 |③---|
27
口口口口 |①---|
口口②② |----|
口口③③ |--②-|
①①口口 |--③-|
28
口口口口 |----|
②①口口 |--①-|
口口口口 |----|
①②口口 |②---|
29
口口口④ |①---|
口口口③ |--②-|
①①口② |--③-|
口口口口 |--④-|
30
口口口口 |----|
口口口口 |①--②|
③③口④ |--③-|
①①口② |-④--|
31
③③③③ |①--②|
①①口② |--③-|
口口口口 |----|
口口口口 |----|
32
口口口口 |①--②|
②⑤④③ |--③-|
口口①口 |④-⑤-|
口口口⑥ |--⑥-|
33
口⑤口④ |①-②-|
口⑦口⑥ |③-④-|
口口口⑧ |⑤-⑥-|
③②①口 |⑦-⑧-|
34
口口口口 |①-②-|
⑤口口口 |③-④-|
③①④⑦ |⑤---|
口⑥②口 |⑥-⑦-|
35
⑧口口口 |①-②-|
⑦口③② |--③④|
⑥①④口 |⑤-⑥-|
口口⑤口 |⑦-⑧-|
36
口口口口 |--①-|
口④口口 |②-③-|
⑥②口③ |④---|
口口⑤① |⑤-⑥-|
37
口口口口 |①-②-|
②口口③ |--③④|
⑥口①④ |⑤-⑥-|
⑧口⑦⑤ |⑦-⑧-|
38
口口口口 |--①-|
口口口④ |②-③-|
⑥③口② |④---|
口①⑤口 |⑤-⑥-|
39
口口口⑧ |①-②-|
②③口⑦ |--③④|
口④①⑥ |⑤-⑥-|
口⑤口口 |⑦-⑧-|
40
①④④口 |①---|
口③口口 |②-③-|
口口②口 |--④-|
口⑤⑤口 |--⑤-|
41
⑤口口⑥ |--①-|
⑦①②口 |②-③-|
口③④口 |④-⑤-|
口口口口 |⑥-⑦-|
42
口口口口 |--①-|
口④口口 |②-③-|
⑥②口③ |④---|
口口⑤① |⑤-⑥-|
43
口口口口 |----|
口②①口 |----|
口口③口 |--①-|
口口口口 |②-③-|
44
口口口口 |--①-|
口口口④ |②-③-|
⑥③口② |④---|
口①⑤口 |⑤-⑥-|
45
口口口口 |----|
口①②口 |----|
口③口口 |--①-|
口口口口 |②-③-|
46
口口口口 |--①-|
④口⑥口 |②-③-|
②⑤③口 |④---|
口口①口 |⑤-⑥-|
47
口②①口 |----|
口口③口 |----|
口口口口 |--①-|
口口口口 |②-③-|
48
④口口③ |①---|
④①口③ |--②-|
口口口口 |--③-|
口②②口 |--④-|
49
口口口口 |----|
口口口口 |----|
口口口口 |----|
口口口口 |----|
50
⑤⑤④④ |①---|
口③口② |②-③-|
口口口口 |--④-|
①口口口 |--⑤-|
51
口口口口 |--①-|
口②②口 |②---|
口⑤①口 |--③-|
口③④口 |④-⑤-|
52
⑥④⑤⑦ |①-②-|
⑧②③口 |③-④-|
口口①口 |⑤-⑥-|
口口口口 |⑦-⑧-|
53
口口口口 |①-②-|
口口口① |③-④-|
②⑧口③ |⑤-⑥-|
④⑥⑦⑤ |⑦-⑧-|
54
④④⑤⑤ |①---|
②口③口 |②-③-|
口口口① |--④-|
口口口口 |--⑤-|
55
口口口口 |--①-|
口②②口 |②---|
口①⑤口 |--③-|
口④③口 |④-⑤-|
56
⑦⑤④⑥ |①-②-|
口③②⑧ |③-④-|
口①口口 |⑤-⑥-|
口口口口 |⑦-⑧-|
57
口口口口 |①-②-|
①口口口 |③-④-|
③口⑧② |⑤-⑥-|
⑤⑦⑥④ |⑦-⑧-|
58
①①口口 |①---|
②②口口 |--②-|
③③口口 |----|
口口口口 |③---|
59
口口口口 |----|
口口口口 |----|
口口口口 |----|
口口口口 |----|
60
口⑤③⑦ |①-②-|
④口口② |③-④-|
口⑥⑥口 |⑤-⑥-|
口①①口 |--⑦-|
61
②口口口 |①-②-|
口③①⑤ |③-④-|
口④④⑥ |--⑤-|
口口口⑦ |⑥-⑦-|
62
⑦③⑤口 |①-②-|
②口口④ |③-④-|
口⑥⑥口 |⑤-⑥-|
口①①口 |--⑦-|
63
口口口③ |①-②-|
①口口④ |③-④-|
②口口⑤ |⑤-⑥-|
⑥⑦⑧口 |⑦-⑧-|
64
④①①② |①-②-|
口⑤③口 |③-④-|
口⑥⑥口 |⑤-⑥-|
口口口⑦ |--⑦-|
65
口③①口 |①-②-|
⑧⑦⑥⑤ |③-④-|
口④④口 |⑤-⑥-|
②口口口 |⑦-⑧-|
66
口口口口 |①---|
口③②口 |--②-|
③口口② |----|
口①①口 |③---|
67
①口口① |--①-|
⑤③③④ |--②-|
口②②口 |--③-|
口口口口 |④-⑤-|
68
口口③口 |①-②-|
口口口口 |③-④-|
④口口②
口①①口

口⑤口口
口⑥⑥口
口口口⑦ |⑤-⑥-|
口口口口 |--⑦-|
69
口④④口 |①-②-|
⑧⑦⑥⑤ |③-④-|
②口口口 |⑤-⑥-|
口③①口 |⑦-⑧-|
70
口⑤③⑦ |①-②-|
口⑥⑥口 |③-④-|
④口口② |⑤-⑥-|
口①①口 |--⑦-|
71
③口口口 |①-②-|
④口口① |③-④-|
⑤口口② |⑤-⑥-|
口⑧⑦⑥ |⑦-⑧-|
72
④口口② |①-②-|
口⑤③口 |③-④-|
口①①口 |⑤-⑥-|
口⑥⑥⑦ |--⑦-|
73
⑧⑦⑥⑤ |①-②-|
口④④口 |③-④-|
口③①口 |⑤-⑥-|
②口口口 |⑦-⑧-|
74
口口口口 |①---|
口③②口 |--②-|
③①①② |----|
口口口口 |③---|
75
①口口① |--①-|
口口⑥口 |--②-|
口③②口 |③-④-|
口⑤④口 |⑤-⑥-|
76
①口口① |①---|
口口口口 |----|
口口口口
口口口口

口口②③
口口③②
口口口口 |--②-|
口口口口 |--③-|
77
口口口口 |----|
②①口口 |--①-|
口口口口 |----|
①②口口 |②---|
78
口口②③ |①---|
口口③② |----|
①①口口 |--②-|
口口口口 |--③-|
79
②①口口 |----|
①②口口 |①---|
口③③口 |②---|
口口口口 |③---|
80
口口口口 |①---|
口口②③ |----|
口口③② |--②-|
①①口口 |--③-|
81
口口口口 |----|
②①口口 |--①-|
口口口口 |----|
①②口口 |②---|
82
②口口② |①---|
口口口口 |②---|
口①①口 |----|
口口口口 |----|
83
③①①① |①---|
③③①口 |--②-|
②③②口 |----|
口②口口 |③---|
84
口口口口 |--①-|
口口①① |----|
口口①① |----|
口口①口 |----|

不確定度: 0

最終更新:2017年08月15日 23:19