Qubellic Prism
Nazzo-Non-Heat

EXTREME

Level: 9
BPM: 170
Notes: 745

1
口口口口 |----|
口口口口 |----|
口口口口 |----|
口口口口 |----|
2
⑤③口口 |①--②|
③口①④ |--③-|
②口④① |-④--|
口②口⑤ |⑤---|
3
口①⑤口 |----|
口②⑥口 |----|
口③⑦口 |----|
口④⑧口 |①②③④⑤⑥⑦⑧|
4
①口口① |①---|
口口口口 |--②-|
②口口②
口口口口

③口口口
口口口口
口口口口 |----|
口口③口 |--③-|
5
口①口口 |----|
口②②口 |--①-|
口口口口 |----|
口口口① |②---|
6
口口口② |①---|
口口口口 |--②-|
口①①口
口②口口

③口口口
口口④口
口④口口 |--③-|
口口③口 |--④-|
7
④⑤②口 |-①--|
①③口⑥ |②--③|
④⑤③① |--④-|
口②口⑥ |⑤-⑥-|
8
口口口口 |①---|
口②①口 |--②-|
口口②口
口口①口

③口口口
口口口口
口口口口 |----|
口口③口 |--③-|
9
口①口口 |----|
口②②口 |--①-|
口口口口 |----|
口口口① |②---|
10
③口口② |①---|
口口口口 |--②-|
口①①口 |--③-|
④②③④ |--④-|
11
②口口④ |----|
③口口① |--①-|
口口口口 |②-③-|
口口口口 |--④-|
12
口②①口 |①-②-|
③④口口 |--③-|
⑦⑧⑨口 |④-⑤-|
口⑥⑤口 |⑥--⑦⑧⑨|
13
口口口口 |①--②|
④⑤口② |--③-|
口口口① |④-⑤-|
口⑥口③ |--⑥-|
14
①口口② |--①-|
③④⑤⑥ |②-③④|
⑦⑧⑨⑩ |⑤⑥⑦⑧|
口⑪⑫口 |⑨⑩⑪⑫|
15
口①①口 |①---|
③口口口 |②-③-|
④口④口 |--④-|
②⑤口⑤ |--⑤-|
16
口口口口 |----|
口②①口 |--①-|
口①②口 |----|
口口口口 |②---|
17
口①①口 |①---|
③口口口 |②-③-|
口口口口
②口口口

口⑤口⑤
口口口口
④口④口 |--④-|
口口口口 |--⑤-|
18
①口口口 |----|
口口①② |①---|
③②口口 |②---|
口口③口 |③---|
19
口①①口 |①---|
③口口口 |②-③-|
④口④口 |--④-|
②⑤口⑤ |--⑤-|
20
口口口口 |----|
口②①口 |--①-|
口①②口 |----|
口口口口 |②---|
21
口①①口 |①---|
④口口④ |--②-|
②口口③ |--③-|
口②③口 |--④-|
22
口口口口 |----|
口口口口 |①---|
①①口口 |--②-|
②②口口 |----|
23
口①①口 |①---|
口口口③ |②-③-|
口④口④ |--④-|
⑤口⑤② |--⑤-|
24
口口口口 |----|
口①②口 |--①-|
口②①口 |----|
口口口口 |②---|
25
口①①口 |①---|
④口④③ |②-③-|
口⑤口⑤ |--④-|
口口口② |--⑤-|
26
口口口① |----|
②①口口 |①---|
口口②③ |②---|
口③口口 |③---|
27
口①①口 |①---|
口口口③ |②-③-|
口④口④ |--④-|
⑤口⑤② |--⑤-|
28
口口口口 |----|
口①②口 |--①-|
口②①口 |----|
口口口口 |②---|
29
口①①口 |①---|
④④④④ |--②-|
③口口② |--③-|
口③②口 |--④-|
30
口口口口 |----|
口口口口 |①--②|
④口①③ |--③-|
②口③① |-④--|
31
③口③① |①--②|
②③①③ |--③-|
⑥⑦⑧⑨ |--④⑤|
口④⑤口 |⑥⑦⑧⑨|
32
口口口③ |①--②|
①口②口 |--③-|
口口口口
口口口口

⑥⑤④口
⑦口口口
⑧口口口 |④-⑤-|
⑨口口口 |----⑥⑦⑧⑨|
33
口⑤⑥⑦ |--①②|
口口口④ |③-④-|
⑧⑨⑩⑪ |⑤⑥⑦-|
口③②① |⑧⑨⑩⑪|
34
口口口口 |①-②-|
口④③② |③-④-|
口口口口
口①①口

⑤口口口
口口口口
口口口口 |⑤---|
⑥⑦口口 |⑥-⑦-|
35
⑥口口⑧ |①-②-|
⑦③④口 |--③④|
口⑤口② |⑤-⑥-|
口口①口 |⑦-⑧-|
36
口口口口 |--①-|
⑤⑥口口 |②-③-|
④口口口 |④---|
口③②① |⑤-⑥-|
37
口口口② |①-②-|
口口①⑦ |--③④|
⑥③④⑧ |⑤-⑥-|
口⑤口口 |⑦-⑧-|
38
口口口④ |--①-|
①②③口 |②-③-|
口口口口 |④---|
口口⑥⑤ |⑤-⑥-|
39
⑥③④⑦ |①-②-|
⑧⑤口口 |--③④|
②口口口 |⑤-⑥-|
口①口口 |⑦-⑧-|
40
④口⑤口 |①---|
口口③① |②-③-|
⑤②④口 |--④-|
口口口口 |--⑤-|
41
⑭⑬⑫⑪ |--①②|
④③②① |③④⑤⑥|
口⑥⑤口 |⑦⑧⑨⑩|
⑩⑨⑧⑦ |⑪⑫⑬⑭|
42
口口口口 |--①-|
口口⑤④ |②-③-|
①②③口 |④---|
口口⑥口 |⑤-⑥-|
43
③⑦⑧⑥ |----①②|
②⑨⑩⑤ |③---④⑤|
①⑪⑫④ |⑥-⑦⑧|
口口口口 |⑨⑩⑪⑫|
44
口口口口 |--①-|
口⑥口口 |②-③-|
④⑤口口 |④---|
口③②① |⑤-⑥-|
45
⑥⑧⑦③ |----①②|
⑤⑩⑨② |③---④⑤|
④⑫⑪① |⑥-⑦⑧|
口口口口 |⑨⑩⑪⑫|
46
口口口口 |--①-|
口口⑥口 |②-③-|
口口⑤④ |④---|
①②③口 |⑤-⑥-|
47
③⑦⑧⑥ |----①②|
②⑨⑩⑤ |③---④⑤|
①⑪⑫④ |⑥-⑦⑧|
口口口口 |⑨⑩⑪⑫|
48
①口口口 |①---|
口口口② |--②-|
口口口口
口口口口

④口③口
口口口口
口③口④ |--③-|
口口口口 |--④-|
49
口口口口 |---①|
口①②③ |②③④⑤|
⑥⑤④口 |⑥⑦⑧⑨|
⑦⑧⑨⑩ |⑩---|
50
②口口④ |①---|
口③口⑤ |②-③-|
口口口① |--④-|
口口口口 |--⑤-|
51
口②口口 |--①-|
口口口口 |②---|
口口①口
口口口口

口口口③
④口⑤口
口⑥⑦口 |--③④|
⑧口口口 |⑤⑥⑦⑧|
52
②⑥口⑦ |①②③④|
口口口③ |⑤⑥⑦⑧|
⑧口口口
口④⑤①

⑭口⑪口
⑩口口⑮
口⑫⑬⑨ |⑨⑩⑪⑫|
⑯口口口 |⑬⑭⑮⑯|
53
口口口③ |①②③④|
⑥②口口 |⑤⑥⑦⑧|
⑧口口⑤
口④⑦①

口⑫⑨口
口口口⑪
口⑩⑬口 |⑨⑩⑪⑫|
⑭口口⑮ |⑬⑭⑮-|
54
②口口④ |①---|
口③①口 |②-③-|
口口口⑤ |--④-|
口口口口 |--⑤-|
55
口②口③ |--①-|
④口⑦口 |②---|
⑧口①⑤ |--③④|
口⑥口口 |⑤⑥⑦⑧|
56
②⑧③口 |①②③④|
口口口⑤ |⑤⑥⑦⑧|
口⑥口口
④口⑦①

口口口⑨
⑫⑯⑬口
⑭口口⑪ |⑨⑩⑪⑫|
口⑩口⑮ |⑬⑭⑮⑯|
57
④口①口 |①②③④|
⑧口口⑤ |⑤⑥⑦⑧|
口⑥③口
②口⑦口

口⑯⑬⑨
口⑫口口
口口口⑪ |⑨⑩⑪⑫|
⑭⑩口⑮ |⑬⑭⑮⑯|
58
口口口口 |①--②|
口口口① |--③-|
②口口口
口口③口

口口口⑤
口④口口
⑥口口口 |-④--|
口口口口 |⑤--⑥|
59
口⑤①口 |----|
口⑥②口 |----|
口⑦③口 |----|
口⑧④口 |①②③④⑤⑥⑦⑧|
60
①口口① |①-②③|
②口口⑤ |④-⑤⑥|
⑥口口③
④口口口

口⑧⑧口
⑨口口口
口口⑩口 |⑦-⑧-|
口口口⑦ |--⑨⑩|
61
口⑩⑨⑤ |①-②③|
⑪口②⑧ |④-⑤-|
③⑥⑦口 |--⑥⑦|
①口④口 |⑧⑨⑩⑪|
62
口口口④ |①-②③|
口⑥③口 |④-⑤⑥|
⑤口口②
口①①口

⑦口⑧口
口口口口
口口口口 |⑦-⑧-|
⑨⑩⑪口 |---⑨⑩⑪|
63
口口口① |①②③④--|
⑤⑥⑦② |⑤⑥⑦⑧⑨⑩|
⑧⑨⑩③
口口口④

⑪⑰⑫⑯
口口口⑱
口口口口 |⑪⑫⑬⑭|
⑬⑭⑮口 |⑮⑯⑰⑱|
64
口⑩口⑨ |①-②③|
①⑦④口 |④-⑤⑥|
⑤③⑥② |⑦-⑧-|
口⑧⑧① |--⑨⑩|
65
②口③口 |①-②③|
口④①⑪ |④-⑤-|
⑥⑦⑧⑨ |⑥⑦⑧⑨|
口⑩口⑤ |⑩-⑪-|
66
口④③② |①--②|
①口口口 |③④⑤-|
口⑤⑤口
口口口口

口口口⑩
口⑨⑨口
口口口口 |-⑥⑦⑧|
⑥⑦⑧口 |⑨--⑩|
67
④②①⑪ |①②③-|
⑤口口⑩ |④⑤⑥⑦--|
⑥③③⑨ |---⑧⑨⑩|
⑦口⑫⑧ |⑪-⑫-|
68
⑧③②⑨ |①-②③|
⑩①④口 |④-⑤⑥|
口⑤⑥口 |⑦-⑧-|
口⑦口口 |--⑨⑩|
69
口②口口 |①-②③|
口口③口 |④-⑤-|
口④口①
口口口⑤

口口⑥⑩
⑪⑦口口
口口⑧⑫ |⑥⑦⑧⑨|
⑬⑨口口 |⑩⑪⑫⑬|
70
②③④口 |①-②③|
口口⑥⑤ |④-⑤⑥|
口口口口
口口①口

⑨口口口
⑩⑦口口
⑪口⑧口 |⑦-⑧-|
口口口口 |---⑨⑩⑪|
71
口口口口 |①②③④--|
口⑦⑥⑤ |⑤⑥⑦⑧⑨⑩|
口⑩⑨⑧
④③②①

口⑫⑬⑪
⑭口口口
⑯口口口 |⑪⑫⑬⑭|
口⑱⑰⑮ |⑮⑯⑰⑱|
72
②⑧⑧⑤ |①-②③|
口③⑥① |④-⑤⑥|
⑩⑦④口 |⑦-⑧-|
⑨口口口 |--⑨⑩|
73
口⑦⑥⑪ |①-②③|
①⑨⑧④ |④-⑤-|
口口⑩③ |⑥⑦⑧⑨|
口⑤⑤② |⑩-⑪-|
74
①口口口 |①--②|
口口口口 |③④⑤-|
⑤口口⑤
口②③④

⑨口口⑨
口⑧⑦⑥
口口口口 |-⑥⑦⑧|
口⑩口口 |⑨--⑩|
75
口口口口 |①②③-|
口⑥⑤④ |-④⑤⑥|
口③③口
口口①②

⑪⑩⑨⑧
⑦口口口
⑫⑬⑭口 |⑦⑧⑨⑩|
口口口口 |⑪⑫⑬⑭|
76
口口口③ |①---|
口口口口 |②-③-|
口口口②
口①①口

口口口口
口④口④
口口口口 |--④-|
口⑤口⑤ |--⑤-|
77
口口口口 |----|
口②①口 |--①-|
口①②口 |----|
口口口口 |②---|
78
口⑤口⑤ |①---|
③口口口 |②-③-|
④口④口 |--④-|
②①①口 |--⑤-|
79
①口口口 |----|
口口①② |①---|
③②口口 |②---|
口口③口 |③---|
80
口①①口 |①---|
③④口④ |②-③-|
口口口口 |--④-|
②⑤口⑤ |--⑤-|
81
口口口口 |----|
口②①口 |--①-|
口①②口 |----|
口口口口 |②---|
82
口①①口 |①---|
②④口③ |②---|
⑥⑧⑤⑦ |③④⑤⑥|
⑩口⑨② |⑦⑧⑨⑩|
83
口①①① |①---|
口②①② |--②-|
口口②口
口②口口

③③③口
③口口口
③③口口 |----|
③口口口 |③---|
84
口口口口 |--①-|
口口①① |----|
口口①① |----|
口口①口 |----|

不確定度: 0

最終更新:2017年08月15日 23:19