アキネイション
ビートまりお(COOL&CREATE)

ADVANCED

Level: 9
BPM: 185
Notes: 660

1
口口口口 |----|
口口口口 |----|
口口口口 |----|
口口口口 |----|
2
口口口口 |①-②-|
口口口口 |③-④-|
⑧⑦⑥⑤ |⑤-⑥-|
①②③④ |⑦-⑧-|
3
口⑤⑤口 |①-②-|
①②③④ |③-④-|
口⑥口口 |⑤--⑥|
口⑧⑦口 |⑦-⑧-|
4
口口口口 |①-②-|
①②③④ |③-④-|
⑧⑦⑥⑤ |⑤-⑥-|
口口口口 |⑦-⑧-|
5
①②口① |①--②|
⑤④③口 |③-④-|
口口口口 |⑤---|
口口口口 |----|
6
口口口口 |①-②-|
口口口口 |③-④-|
⑧⑦⑥⑤ |⑤-⑥-|
①②③④ |⑦-⑧-|
7
口⑤⑤口 |①-②-|
①②③④ |③-④-|
口⑥口口 |⑤--⑥|
口⑧⑦口 |⑦-⑧-|
8
口⑨⑧⑦ |①-②③|
②③④⑩ |④-⑤-|
⑤口口⑥ |⑥-⑦⑧|
①口口口 |⑨-⑩-|
9
⑦⑦⑧口 |①-②-|
⑤⑤⑥口 |③-④-|
③③④口 |⑤-⑥-|
①①②口 |⑦-⑧-|
10
口⑨⑧⑦ |①-②③|
口口口⑥ |④-⑤-|
口⑤⑩① |⑥-⑦⑧|
②③④口 |⑨-⑩-|
11
口⑦⑧口 |①-②③|
②③④口 |④-⑤-|
口⑤⑨口 |⑥--⑦|
⑥①口口 |⑧-⑨-|
12
口⑨⑧⑦ |①-②③|
②③④口 |④-⑤-|
口⑩⑪口 |⑥-⑦⑧|
口⑤①⑥ |⑨-⑩⑪|
13
④口口⑤ |①--②|
口②口口 |③-④-|
口口口① |⑤---|
口口③口 |----|
14
口口口口 |①-②③|
②③④口 |④-⑤-|
口⑤①口
口口口口

口⑨⑧⑦
口口口口
口口⑩口 |⑥-⑦⑧|
口口⑥口 |⑨-⑩-|
15
口⑧⑦口 |①-②③|
②③④⑨ |④-⑤-|
口⑤口口 |⑥--⑦|
口①⑥口 |⑧-⑨-|
16
⑦⑤⑥口 |①---|
①口口口 |②-③-|
口④口② |④--⑤|
口口③口 |⑥-⑦-|
17
口口口② |①--②③④|
①⑦⑦③ |⑤-⑥-|
口口口④ |⑦---|
口⑥口⑤ |----|
18
口口口口 |①---|
②③④口 |--②③|
口⑤口⑦ |④-⑤-|
①口⑥口 |⑥-⑦-|
19
口②①口 |--①-|
口④③口 |②-③-|
⑤⑥口口 |④---|
口口口口 |--⑤⑥|
20
口②口⑤ |①--②|
⑥口③口 |③-④-|
口口①⑦ |⑤-⑥-|
⑧口口④ |⑦-⑧-|
21
口②⑥⑤ |①---②③|
口③口口 |④-⑤-|
口④口口 |⑥---|
口口①口 |----|
22
口口口口 |①---|
②③④口 |--②③|
口⑤口⑦ |④-⑤-|
口①⑥口 |⑥-⑦-|
23
口②①口 |--①-|
口④③口 |②-③-|
口口口口 |④---|
口⑤口口 |⑤---|
24
口⑦口口 |①---|
口⑤⑥口 |②-③-|
口③④① |④-⑤-|
口口②口 |⑥-⑦-|
25
①口口① |①---|
口口口口 |----|
口口口口 |----|
口口口口 |----|
26
口口口口 |①---|
②③④口 |--②③|
口⑤口⑦ |④-⑤-|
①口⑥口 |⑥-⑦-|
27
口②①口 |--①-|
口④③口 |②-③-|
⑤⑥口口 |④---|
口口口口 |--⑤⑥|
28
口②口⑤ |①--②|
⑥口③口 |③-④-|
口口①⑦ |⑤-⑥-|
⑧口口④ |⑦-⑧-|
29
口②⑥⑤ |①---②③|
口③口口 |④-⑤-|
口④口口 |⑥---|
口口①口 |----|
30
口口口口 |①---|
②③④口 |--②③|
口⑤口⑦ |④-⑤-|
口①⑥口 |⑥-⑦-|
31
①口③口 |①---|
口④口口 |②---|
口口⑤口 |③-④-|
口⑥口② |⑤-⑥-|
32
①口口② |①---|
口口口口 |②---|
口口口口 |③---|
③口口④ |④---|
33
口口口口 |①---|
口①①口 |----|
口①①口 |----|
口口口口 |----|
34
⑤口口② |①---|
口③⑥口 |②--③|
①⑦④口 |④-⑤-|
口①口口 |⑥-⑦-|
35
口④②口 |①-②-|
口⑥⑦口 |③-④-|
口口口口 |⑤---|
⑤③③① |⑥-⑦-|
36
②口⑥⑤ |①---|
口⑦口③ |②--③|
④口口口 |④-⑤-|
口口口① |⑥-⑦-|
37
⑥口口口 |①-②③|
①口口⑤ |④-⑤-|
口③②口 |⑥---|
口口④口 |----|
38
⑤口口② |①---|
口③⑥口 |②--③|
①⑦④口 |④-⑤-|
口①口口 |⑥-⑦-|
39
口④②口 |①-②-|
口⑥⑦口 |③-④-|
口口口口 |⑤---|
⑤③③① |⑥-⑦-|
40
②口口① |①---|
口⑦口③ |②--③|
④口⑥⑤ |④-⑤-|
口口口口 |⑥-⑦-|
41
⑥口口⑤ |①-②③|
①口口口 |④-⑤-|
口④口口 |⑥---|
口②③口 |----|
42
⑤口口② |①---|
口③⑥口 |②--③|
①⑦④口 |④-⑤-|
口①口口 |⑥-⑦-|
43
口④②口 |①-②-|
口⑥⑦口 |③-④-|
口口口口 |⑤---|
⑤③③① |⑥-⑦-|
44
②口⑥⑤ |①---|
口⑦口③ |②--③|
④口口口 |④-⑤-|
口口口① |⑥-⑦-|
45
⑥口口口 |①-②③|
①口口口 |④-⑤-|
口③②⑤ |⑥---|
口口④口 |----|
46
口口口口 |①-②-|
口③②① |③---|
④⑤⑥口 |④-⑤-|
口口口口 |⑥---|
47
口③②① |①-②-|
口口口口 |③---|
口口口口 |④-⑤-|
④⑤⑥口 |⑥---|
48
④④④④ |①---|
口③③③ |②---|
口口②② |③---|
口口口① |④---|
49
口口口口 |①-②-|
口口口口 |③-④-|
①②③④ |⑤-⑥-|
⑤⑥⑦⑧ |⑦-⑧-|
50
⑤口③④ |①-②-|
⑦⑥④③ |③-④-|
①②⑥⑦ |⑤-⑥-|
口口口口 |⑦---|
51
⑦口③④ |①-②-|
口⑥④③ |③-④-|
①②⑥口 |⑤-⑥-|
口⑤口⑦ |⑦---|
52
⑧⑦③④ |①-②-|
⑦⑧④③ |③-④-|
①②口口 |⑤-⑥-|
口⑥⑤口 |⑦-⑧-|
53
口口口⑦ |①--②|
口⑥③② |③-④-|
④口⑥口 |⑤---|
⑦⑤⑤① |⑥-⑦-|
54
①③②口 |①---|
口⑦④口 |--②③|
口口口⑥ |④-⑤-|
口⑤口① |⑥-⑦-|
55
⑤口③② |①--②|
口口口口 |③-④-|
口④①口 |⑤---|
口口⑦⑥ |--⑥⑦|
56
口口口口 |①---|
②口口口 |②---|
口②口口
口①口口

口④口口
口口⑤③
口口③口 |③--④|
⑥⑦口口 |⑤-⑥⑦|
57
口口口④ |①--②|
②口⑥口 |--③-|
口⑤③⑦ |④-⑤-|
口口①口 |⑥-⑦-|
58
④③口⑤ |①-②-|
③④⑥⑦ |③-④-|
⑦⑥口口 |⑤-⑥-|
口①②口 |⑦---|
59
④③口⑦ |①-②-|
③④⑥口 |③-④-|
口⑥口口 |⑤-⑥-|
⑦①②⑤ |⑦---|
60
④③⑦⑧ |①-②-|
③④⑧⑦ |③-④-|
口口口口 |⑤-⑥-|
⑥①②⑤ |⑦-⑧-|
61
②③口⑨ |①--②|
⑥口口口 |③-④-|
⑦①口④ |⑤---⑥⑦|
⑧⑤口口 |⑧-⑨-|
62
口②口口 |①---|
口口①③ |--②-|
口④口口 |③-④-|
口⑥口⑤ |⑤-⑥-|
63
②口⑤口 |①---②③|
③口口口 |④-⑤-|
④口口口
口口①口

口口口口
口⑥口口
口口口口 |⑥---|
口⑧⑦口 |--⑦⑧|
64
⑦⑥⑤④ |①--②|
②口⑧口 |③-④-|
口③①口 |⑤-⑥-|
口口口口 |⑦-⑧-|
65
⑤口口④ |①--②|
口③口② |--③-|
②口③⑥ |④---|
④①①口 |⑤-⑥-|
66
口⑨⑧⑦ |①-②③|
②③④口 |④-⑤-|
口①口口 |⑥-⑦⑧|
口⑤⑥⑩ |⑨-⑩-|
67
口口口口 |①-②③|
②③④口 |④-⑤-|
口①口口
口口⑤口

口口⑦口
口口口⑧
口⑨口口 |⑥--⑦|
⑥口口口 |⑧-⑨-|
68
口⑨⑧⑦ |①-②③|
②③④口 |④-⑤-|
口⑩⑪口 |⑥-⑦⑧|
⑥①⑤口 |⑨-⑩⑪|
69
④口口⑤ |①--②|
口②口口 |③-④-|
口口口① |⑤---|
口口③口 |----|
70
口⑨⑧⑦ |①-②③|
②③④口 |④-⑤-|
口⑤⑩口 |⑥-⑦⑧|
口①⑥口 |⑨-⑩-|
71
口口⑦口 |①-②③|
②③④⑧ |④-⑤-|
口⑤⑨口 |⑥--⑦|
口①⑥口 |⑧-⑨-|
72
口⑨⑧⑦ |①-②③|
②③④口 |④-⑤-|
口⑤⑩口 |⑥-⑦⑧|
口①⑥口 |⑨-⑩-|
73
口⑪口⑦ |①-②③|
②③④⑧ |④-⑤-|
口⑤口⑨ |⑥--⑦⑧⑨|
口①⑥⑩ |⑩-⑪-|
74
口⑨⑧⑦ |①-②③|
②③④口 |④-⑤-|
口⑤⑩口 |⑥-⑦⑧|
口①⑥口 |⑨-⑩-|
75
口⑧⑦口 |①-②③|
②③④口 |④-⑤-|
口口⑨口 |⑥--⑦|
⑥①⑤口 |⑧-⑨-|
76
口⑨⑧⑦ |①-②③|
②③④口 |④-⑤-|
口⑩⑪口 |⑥-⑦⑧|
⑥①⑤口 |⑨-⑩⑪|
77
口口口口 |①--②|
②③口④ |③-④-|
口口口① |⑤---|
口口⑤口 |----|
78
口⑨⑧⑦ |①-②③|
②③④口 |④-⑤-|
口⑤⑩口 |⑥-⑦⑧|
口①⑥口 |⑨-⑩-|
79
口口口口 |①-②③|
②③④口 |④-⑤-|
口⑤口口
口①口口

口⑦⑧口
口口口口
口口口口 |⑥--⑦|
口⑨⑥口 |⑧-⑨-|
80
口口口口 |①---|
⑦③④口 |②-③-|
①④③口 |④--⑤|
口⑤⑥② |⑥-⑦-|
81
②④口① |①---|
口⑤③口 |②---|
口⑥⑧口 |③--④⑤⑥|
①⑦口② |⑦-⑧-|
82
口口口口 |①---|
①口口① |----|
口口口口 |----|
口口口口 |----|
83
①口口④ |①--②|
口③②口 |--③-|
口②③口 |④---|
④口口① |----|

不確定度: 0

最終更新:2017年08月15日 23:16