AREA 51
96

EXTREME

Level: 10
BPM: 188
Notes: 828

1
口口口口 |----|
口口口口 |----|
口口口口 |----|
①①①① |--①-|
2
①①①① |--①-|
②②口④ |--②-|
③口⑤⑤ |③-④-|
⑥⑥⑥⑥ |⑤-⑥-|
3
①①①① |--①-|
②③④⑤ |--②-|
口②⑤口 |③-④-|
⑥⑥⑥⑥ |⑤-⑥-|
4
①①①① |--①-|
②口⑤④ |--②-|
③②口⑤ |③-④-|
⑥⑥⑥⑥ |⑤-⑥-|
5
①①①① |--①-|
②③⑤口 |--②-|
口②④⑤ |③-④-|
⑥⑥⑥⑥ |⑤-⑥-|
6
①①①① |--①-|
②口口⑤ |--②-|
③②⑤④ |③-④-|
⑥⑥⑥⑥ |⑤-⑥-|
7
①①①① |--①-|
②口口⑤ |--②-|
③②⑤④ |③-④-|
⑥⑥⑥⑥ |⑤-⑥-|
8
口③②① |--①②|
④⑤⑥口 |③-④⑤|
⑦⑧⑨口 |⑥-⑦⑧|
口口⑪⑩ |⑨-⑩⑪|
9
②③④⑤ |①--②③④|
口⑧⑦⑥ |⑤--⑥⑦⑧|
口口口口
口①口口

口口口口
⑨口口口
⑩⑪⑫⑬ |⑨--⑩⑪⑫|
口⑭⑭口 |⑬-⑭-|
10
①①①① |--①-|
②②口④ |--②-|
③口⑤⑤ |③-④-|
⑥⑥⑥⑥ |⑤-⑥-|
11
①①①① |--①-|
②③④⑤ |--②-|
口②⑤口 |③-④-|
⑥⑥⑥⑥ |⑤-⑥-|
12
①①①① |--①-|
②口⑤④ |--②-|
③②口⑤ |③-④-|
⑥⑥⑥⑥ |⑤-⑥-|
13
①①①① |--①-|
②③⑤口 |--②-|
口②④⑤ |③-④-|
⑥⑥⑥⑥ |⑤-⑥-|
14
①①①① |--①-|
②口口⑤ |--②-|
③②⑤④ |③-④-|
⑥⑥⑥⑥ |⑤-⑥-|
15
①①①① |--①-|
②③④⑤ |--②-|
口②⑤口 |③-④-|
⑥⑥⑥⑥ |⑤-⑥-|
16
①①①① |--①-|
②口⑤④ |--②-|
③②口⑤ |③-④-|
⑥⑥⑥⑥ |⑤-⑥-|
17
①①①① |--①-|
②③⑤口 |--②-|
口②④⑤ |③-④-|
⑥⑥⑥⑥ |⑤-⑥-|
18
口①①口 |--①-|
②口口③ |②-③-|
④口口⑤ |④-⑤-|
口⑥⑦口 |⑥-⑦-|
19
①②③④ |①②③④|
⑧⑦⑥⑤ |⑤⑥⑦⑧|
⑨⑩⑪⑫ |⑨⑩⑪⑫|
口⑭⑬口 |⑬-⑭-|
20
①③④② |--①-|
⑤口口⑥ |②-③-|
口⑤⑥口 |④---|
口口口口 |⑤-⑥-|
21
口⑦⑦口 |--①-|
口口口口 |②-③-|
④⑤⑥口 |④-⑤-|
口③②① |⑥-⑦-|
22
⑤口口⑦ |--①-|
①②③口 |②-③-|
口口口口 |④-⑤-|
④口口⑥ |⑥-⑦-|
23
口口口口 |①-②-|
⑥⑥⑥⑥ |③-④-|
④③②① |⑤-⑥-|
⑦⑤⑤⑦ |--⑦-|
24
①③④② |--①-|
⑤口口⑥ |②-③-|
口⑤⑥口 |④---|
口口口口 |⑤-⑥-|
25
口⑦⑦口 |--①-|
口口口口 |②-③-|
④⑤⑥口 |④-⑤-|
口③②① |⑥-⑦-|
26
口口口口 |--①-|
①②③口 |②-③-|
口口口口 |----|
④⑤⑥⑦ |④⑤⑥⑦|
27
口⑧⑧口 |①②③④|
⑤⑥⑦口 |⑤⑥⑦-|
④③②① |⑧---|
⑨口口⑨ |--⑨-|
28
①③④② |--①-|
⑤口口⑥ |②-③-|
口⑤⑥口 |④---|
口口口口 |⑤-⑥-|
29
口⑦⑦口 |--①-|
口口口口 |②-③-|
④⑤⑥口 |④-⑤-|
口③②① |⑥-⑦-|
30
⑤口口⑦ |--①-|
①②③口 |②-③-|
口口口口 |④-⑤-|
④口口⑥ |⑥-⑦-|
31
口口口口 |①-②-|
⑥⑥⑥⑥ |③-④-|
④③②① |⑤-⑥-|
⑦⑤⑤⑦ |--⑦-|
32
①③④② |--①-|
⑤口口⑥ |②-③-|
口⑤⑥口 |④---|
口口口口 |⑤-⑥-|
33
口⑦⑦口 |--①-|
口口口口 |②-③-|
④⑤⑥口 |④-⑤-|
口③②① |⑥-⑦-|
34
口口口④ |--①-|
①②③口 |②-③-|
口口口口 |④---|
⑤⑥⑦⑧ |⑤⑥⑦⑧|
35
⑧口口⑧ |①②③④|
⑤⑥⑦口 |⑤⑥⑦-|
④③②① |⑧---|
口⑨⑨口 |--⑨-|
36
口①①口 |----|
②③③② |①---|
口④④口 |②③④-|
⑤⑥⑥⑤ |⑤-⑥-|
37
④口口② |----|
口口口口 |----|
③③①① |①-②-|
口口口口 |③-④-|
38
③口口③ |----|
口口口口 |----|
口②②口 |①-②-|
①口口① |--③-|
39
口口口口 |--①-|
口①②口 |②---|
①口口② |----|
口③③口 |--③-|
40
口①①口 |----|
②③③② |①---|
口④④口 |②③④-|
⑤⑥⑥⑤ |⑤-⑥-|
41
④口口② |----|
口口口口 |----|
③③①① |①-②-|
口口口口 |③-④-|
42
口③①口 |----|
口口口口 |----|
④④②② |①-②-|
口口口口 |③-④-|
43
口口口口 |----|
口口口口 |----|
口口口口 |----|
口①①口 |--①-|
44
口①①口 |----|
②③③② |①---|
口④④口 |②③④-|
⑤⑥⑥⑤ |⑤-⑥-|
45
④口口② |----|
口口口口 |----|
③③①① |①-②-|
口口口口 |③-④-|
46
③口口③ |----|
口口口口 |----|
口②②口 |①-②-|
①口口① |--③-|
47
口口口口 |--①-|
口①②口 |②---|
口口口口 |----|
口③③口 |--③-|
48
口①①口 |----|
②③③② |①---|
口④④口 |②③④-|
⑤⑥⑥⑤ |⑤-⑥-|
49
④口口② |----|
口③①口 |----|
③④②① |①-②-|
口口口口 |③-④-|
50
口口口口 |----|
口口口口 |----|
口口口口 |----|
口口口口 |----|
51
口③③口 |①---|
口①①口 |----|
②④④② |②-③-|
口②②口 |--④-|
52
②口口② |----|
③②②③ |----|
口③③口 |①-②-|
①口口① |--③-|
53
口①①口 |----|
口口口口 |----|
口口口口 |----|
口口口口 |--①-|
54
⑨⑬⑫⑧ |--①-|
③⑦④⑩ |②③④⑤|
⑪⑤⑥② |⑥⑦⑧⑨|
口①①口 |⑩⑪⑫⑬|
55
⑦⑧⑧⑥ |①--②|
③口④口 |③④⑤-|
口⑤口② |⑥-⑦-|
口①①口 |--⑧-|
56
口口口口 |--①-|
④⑤口口 |②-③-|
口⑥⑥口 |④-⑤-|
口③②① |--⑥-|
57
④③②① |--①-|
口口口口 |②-③-|
口口口口 |----|
口口口口 |--④-|
58
口⑨⑧① |--①-|
⑬③②⑫ |②③④⑤|
⑤⑦⑥④ |⑥⑦⑧⑨|
⑪口口⑩ |⑩⑪⑫⑬|
59
②⑩⑨① |①②③④|
口⑭⑬口 |⑤⑥⑦⑧|
⑥⑧⑦⑤ |⑨⑩⑪⑫|
⑫④③⑪ |⑬-⑭-|
60
①口口口 |--①-|
②口口口 |②-③-|
③口口口 |④-⑤-|
⑥口⑤④ |--⑥-|
61
口口口① |--①-|
口④⑤② |②-③-|
口口口③ |----|
口口口口 |④-⑤-|
62
⑨①②⑩ |--①②|
⑤⑬⑭⑥ |③④⑤⑥|
③⑪⑫④ |⑦⑧⑨⑩|
口⑦⑧口 |⑪⑫⑬⑭|
63
⑪③④⑫ |①②③④|
⑦⑮⑯⑧ |⑤⑥⑦⑧|
⑤⑬⑭⑥ |⑨⑩⑪⑫|
①⑨⑩② |⑬⑭⑮⑯|
64
口①①口 |----|
口口口口 |①---|
口口口口 |②-③-|
②④④③ |--④-|
65
口①①口 |--①-|
口②③口 |----|
口口口口 |----|
口口口口 |②-③-|
66
⑨①②⑩ |--①②|
⑤⑬⑭⑥ |③④⑤⑥|
③⑪⑫④ |⑦⑧⑨⑩|
口⑦⑧口 |⑪⑫⑬⑭|
67
⑪③④⑫ |①②③④|
⑦⑮⑯⑧ |⑤⑥⑦⑧|
⑤⑬⑭⑥ |⑨⑩⑪⑫|
①⑨⑩② |⑬⑭⑮⑯|
68
⑨①②⑩ |--①②|
⑤⑬⑭⑥ |③④⑤⑥|
③⑪⑫④ |⑦⑧⑨⑩|
口⑦⑧口 |⑪⑫⑬⑭|
69
口③④口 |①②③④|
⑦口口⑧ |⑤⑥⑦⑧|
⑤口口⑥
①口口②

⑪口口⑫
口口口口
口⑬⑭口 |⑨⑩⑪⑫|
⑮⑨⑩⑯ |⑬⑭⑮⑯|
70
口口口口 |----|
①①口③ |--①-|
②口④④ |②-③-|
⑤⑤⑤⑤ |④-⑤-|
71
①①①① |--①-|
②③④⑤ |--②-|
口②⑤口 |③-④-|
⑥⑥⑥⑥ |⑤-⑥-|
72
①①①① |--①-|
②口⑤④ |--②-|
③②口⑤ |③-④-|
⑥⑥⑥⑥ |⑤-⑥-|
73
①①①① |--①-|
②③⑤口 |--②-|
口②④⑤ |③-④-|
⑥⑥⑥⑥ |⑤-⑥-|
74
①①①① |--①-|
②口口⑤ |--②-|
③②⑤④ |③-④-|
⑥⑥⑥⑥ |⑤-⑥-|
75
①①①① |--①-|
②口口⑤ |--②-|
③②⑤④ |③-④-|
⑥⑥⑥⑥ |⑤-⑥-|
76
①①①① |--①-|
②③④⑤ |--②-|
口②⑤口 |③-④-|
⑥⑥⑥⑥ |⑤-⑥-|
77
①①①① |--①-|
②口⑤④ |--②-|
③②口⑤ |③-④-|
⑥⑥⑥⑥ |⑤-⑥-|
78
①①①① |--①-|
②③④⑤ |--②-|
口②⑤口 |③-④-|
⑥⑥⑥⑥ |⑤-⑥-|
79
④①①⑤ |--①-|
⑩⑥⑦⑪ |②③④⑤|
②⑧⑨③ |⑥⑦⑧⑨|
⑫⑫⑫⑫ |⑩⑪⑫-|
80
口口口口 |----|
口口口口 |----|
口口口口 |----|
口口口口 |----|
81
③口口③ |----|
口口口口 |----|
口①②口 |---①|
口口口口 |②-③-|

不確定度: 0

最終更新:2014年12月14日 17:48