Synchrogazer


EXTREME

Level: 9
BPM: 159
Notes: 708

1
口口口口 |----|
口口口口 |----|
口口口口 |----|
口口口口 |----|
2
①口口⑤ |①②③-|
口②⑥口 |④-⑤⑥|
口口③口
④口口口

口口口口
⑪⑨口⑫
口⑦⑩口 |⑦-⑧-|
口口口⑧ |⑨⑩⑪⑫|
3
口②②口 |①-②-|
口口④口 |③-④⑤|
③口口③
口①①⑤

口口口口
⑧⑥口⑧
口口口口 |-⑥⑦-|
⑦⑨⑨口 |⑧-⑨-|
4
③①①③ |①-②-|
口口④口 |③-④⑤|
口②②⑤
口口口口

口⑨⑨口
口⑧口口
⑦口口口 |-⑥-⑦|
⑥口口⑥ |⑧-⑨-|
5
口⑧⑧口 |①-②-|
②⑥④② |③-④⑤|
⑨③③⑨ |-⑥⑦-|
⑦①①⑤ |⑧-⑨-|
6
⑥⑤⑤⑥ |①-②③|
①口口① |--④-|
口②口口 |⑤---|
④口③④ |⑥---|
7
口④口口 |--①-|
④①口② |--②-|
③①②口 |③---|
③①①口 |④---|
8
②口①① |①---|
口②①口 |--②-|
口口口①
口口①①

口口口口
口口口口
口口③口 |----|
口口口③ |③---|
9
口口口① |--①-|
口③①口 |----|
口②③口 |②---|
②口口口 |③---|
10
③口口① |①---|
口③①口 |--②-|
③②口① |----|
②口②口 |③---|
11
口口口口 |--①-|
④⑤②① |----|
③②①③ |②---|
口口口① |③-④⑤|
12
口④口口 |①-②-|
口⑦口① |③-④⑤|
⑥口②⑤ |----|
口③口口 |--⑥⑦|
13
口④口③ |①-②-|
②口口① |③-④⑤|
口口口口 |----|
口口⑤口 |----|
14
⑤⑤④④ |①--②|
③③⑤⑤ |--③-|
②口②② |④---|
①①口① |⑤---|
15
口口口口 |①②③④|
⑤⑪⑪⑧ |-⑤⑥⑦|
①⑥⑦④ |⑧-⑨-|
⑨②③⑩ |⑩-⑪-|
16
②口口口 |①---|
口口口口 |---②|
口②口口
口①①口

口口③口
⑥④口⑤
口口口③ |-③-④|
④⑥⑤口 |-⑤-⑥|
17
④②⑤③ |-①-②|
⑧⑥①⑦ |-③-④|
②④③⑤ |-⑤-⑥|
⑥⑧⑦① |-⑦-⑧|
18
④口③口 |--①-|
口⑤②口 |②-③-|
⑦⑥①口 |④-⑤⑥|
口口口口 |--⑦-|
19
口②口口 |①-②-|
口口⑦③ |③-④-|
口④口口 |⑤-⑥⑦|
口⑥①⑤ |----|
20
①①口口 |----|
①①口口 |①---|
①②②② |--②-|
口口②口 |----|
21
①②②① |①---|
①①①① |②---|
口口口口
口口口口

口口口口
④口口④
③口口③ |③---|
④口口④ |④---|
22
④口③口 |--①-|
口⑤②口 |②-③-|
⑧⑥①⑦ |④-⑤⑥|
口口口口 |--⑦⑧|
23
口②口口 |①-②-|
口⑥⑦③ |③-④-|
口口口口 |⑤-⑥⑦|
④口①⑤ |----|
24
①①口口 |----|
①口②口 |①---|
①①②口 |--②-|
①②口② |----|
25
①①①① |①--②|
①③③① |--③-|
②口口②
口口口口

④口口⑤
④口口⑤
口口口口 |----|
口口口口 |④-⑤-|
26
口口口⑤ |①--②|
口②②口 |--③-|
③④口口 |④---|
口①①口 |⑤---|
27
口口口口 |①--②|
口①口口 |--③-|
口口②口
口③口口

口⑤④口
⑤⑦⑥④
④口口⑤ |④--⑤|
口口口口 |--⑥⑦|
28
④口口口 |①--②|
④口口③ |--③-|
口⑥①③ |④--⑤|
口②⑤⑤ |--⑥-|
29
②②①① |①--②|
④口③③ |--③-|
⑥⑥⑥⑥ |④--⑤|
口口口⑤ |--⑥-|
30
④④口② |--①-|
口口⑤⑤ |②-③-|
⑥⑥⑥⑥ |④--⑤|
口③①口 |--⑥-|
31
④④⑥② |--①-|
口口⑤⑤ |②-③-|
口口口⑥ |④--⑤|
⑥③①口 |--⑥-|
32
口①口口 |----|
口②口口 |--①②|
④口③口 |③--④|
口口口⑤ |--⑤-|
33
③②①口 |----|
①③口② |①---|
②口③① |②---|
口①②③ |③---|
34
口②口① |①--②|
口口①口 |--③-|
口①口②
①③③口

口口⑤口
④口口④
⑤⑥⑥口 |④--⑤|
口口口口 |--⑥-|
35
②④③① |①---|
④口口③ |②---|
③⑤⑥④ |③---|
①③④② |④-⑤⑥|
36
口口②口 |①---|
口①口② |②-③-|
③口口口
口③口口

⑤口口口
口⑤口口
口口口④ |--④-|
口口④口 |--⑤-|
37
口⑤口① |----|
⑩⑥⑨② |①②③④|
口⑦口③ |⑤⑥⑦⑧|
口⑧口④ |⑨-⑩-|
38
口③①① |①---|
⑤④口⑤ |②-③-|
口口口口 |--④-|
口口②② |--⑤-|
39
⑥口⑨③ |--①②|
口口口口 |③-④⑤|
⑧②⑤⑪ |⑥-⑦⑧|
①⑦⑩④ |⑨-⑩⑪|
40
口①口② |①②--|
③口口④ |--③④|
口口口口
口口口口

口口口⑧
口口⑦口
口⑤口口 |⑤-⑥⑦|
口口⑥口 |--⑧-|
41
⑤②④口 |①-②③|
⑧⑦⑦⑧ |-④⑤-|
口③②④ |--⑥-|
①⑥⑥口 |⑦-⑧-|
42
⑧④②⑤ |①-②③|
⑦⑥⑥⑦ |-④⑤-|
④②③⑧ |--⑥-|
口口口① |⑦-⑧-|
43
⑤②①⑤ |①---|
口口口口 |②---|
④③③④ |③--④|
③①②③ |--⑤-|
44
口口口口 |①---|
①②②① |②---|
口口口口
口①①口

④口口口
口口口⑤
⑥③③口 |③---|
口口口⑦ |④⑤⑥⑦|
45
⑤④②口 |①--②|
④口②⑥ |--③-|
⑦③口④ |--④-|
①③④⑧ |⑤⑥⑦⑧|
46
口④②口 |①--②|
④⑥②⑤ |--③-|
口③口④ |--④-|
①③④口 |--⑤⑥|
47
③口②④ |①--②|
口⑤⑥口 |--③-|
③口①④ |④--⑤|
口⑤⑥口 |--⑥-|
48
②①①② |①---|
口口口口 |----|
口口口口 |--②-|
③口口③ |--③-|
49
口①①口 |①---|
①口③① |----|
口口口口 |----|
口口②口 |②-③-|
50
⑤②④口 |①-②③|
⑧⑦⑦⑧ |-④⑤-|
口③②④ |--⑥-|
①⑥⑥口 |⑦-⑧-|
51
⑧④②⑤ |①-②③|
⑦⑥⑥⑦ |-④⑤-|
④②③⑧ |--⑥-|
口口口① |⑦-⑧-|
52
⑤②①⑤ |①---|
口口口口 |②---|
④③③④ |③--④|
③①②③ |--⑤-|
53
口口口口 |①---|
①②②① |②---|
④③③⑤ |③---|
④①①⑤ |④-⑤-|
54
④③口④ |①--②|
⑤①②⑤ |--③-|
⑥口口⑥ |④-⑤-|
⑦口口⑦ |⑥-⑦-|
55
⑥④④⑥ |①-②-|
⑤③③⑤ |③-④-|
⑤②②⑤ |⑤---|
口①①口 |⑥---|
56
口口口口 |①---|
口①①口 |----|
口口口口
口口口口

口口口口
口③②口
口口口口 |----|
口③②口 |②-③-|
57
②①②① |----|
口③③口 |①---|
②①②① |②---|
口③③口 |③---|
58
③口口③ |①--②|
口口口口 |--③-|
②口口② |----|
①口口① |----|
59
口口③③ |①--②|
口口口口 |--③-|
口口①② |----|
口口②① |----|
60
④⑧③③ |①--②|
⑤⑨口口 |--③-|
⑥⑩①② |④⑤⑥⑦|
⑦⑪②① |⑧⑨⑩⑪|
61
⑤口口⑥ |①--②|
口口口④ |--③-|
③口口② |④--⑤|
口口①口 |--⑥-|
62
口②②口 |①-②-|
口口④口 |③-④⑤|
③口口③
口①①⑤

口口口口
⑧⑥口⑧
口口口口 |-⑥⑦-|
⑦⑨⑨口 |⑧-⑨-|
63
②①①② |①-②-|
口口④口 |③-④⑤|
口③③⑤
口口口口

口⑨⑨口
口⑧口口
⑦口口口 |-⑥-⑦|
⑥口口⑥ |⑧-⑨-|
64
口⑧⑧口 |①-②-|
②⑥④② |③-④⑤|
⑨③③⑨ |-⑥⑦-|
⑦①①⑤ |⑧-⑨-|
65
⑥⑤⑤⑥ |①-②③|
①⑥⑥① |--④-|
口②口口 |⑤---|
④口③④ |⑥---|
66
口②口口 |①---|
口口口② |②---|
②①①口
口口②口

口口③口
③口口口
口⑤⑤③ |③--④|
④③口④ |--⑤-|
67
②③口② |①-②-|
③①①口 |--③-|
口口口③
口口③口

⑥口④⑥
口⑥⑥④
④口口口 |④---|
⑤④口⑤ |⑤-⑥-|

不確定度: 0

タグ:

+ タグ編集
  • タグ:

このサイトはreCAPTCHAによって保護されており、Googleの プライバシーポリシー利用規約 が適用されます。

最終更新:2014年08月01日 01:32