アキネイション
ビートまりお(COOL&CREATE)

EXTREME

Level: 10
BPM: 185
Notes: 769

1
口口口口 |----|
口口口口 |----|
口口口口 |----|
口口口口 |----|
2
⑤③口口 |①-②-|
口口⑦① |③-④-|
④⑥口口 |⑤-⑥-|
口口②⑧ |⑦-⑧-|
3
⑤③口⑧ |①-②-|
口⑤口① |③-④-|
④口⑦⑥ |⑤--⑥|
口口②口 |⑦-⑧-|
4
④⑥口口 |①-②-|
口口②⑧ |③-④-|
⑤③口口 |⑤-⑥-|
口口⑦① |⑦-⑧-|
5
口口口口 |①--②|
②③口口 |③-④-|
⑤口①口 |⑤---|
④口口① |----|
6
口口③⑤ |①-②-|
①⑦口口 |③-④-|
口口⑥④ |⑤-⑥-|
⑧②口口 |⑦-⑧-|
7
⑧口③⑤ |①-②-|
①口⑤口 |③-④-|
⑥⑦口④ |⑤--⑥|
口②口口 |⑦-⑧-|
8
口⑦②口 |①-②③|
⑧③口口 |④-⑤-|
口⑨④口 |⑥-⑦⑧|
⑤⑥①⑩ |⑨-⑩-|
9
①⑦②④ |①-②-|
⑤③⑥⑧ |③-④-|
①⑦④② |⑤-⑥-|
③⑤⑥⑧ |⑦-⑧-|
10
口口②⑦ |①-②③|
口③⑧口 |④-⑤-|
①⑩④⑨ |⑥-⑦⑧|
⑤⑥口口 |⑨-⑩-|
11
②⑥⑧⑦ |①-②③|
⑥③口⑤ |④-⑤-|
④⑨⑨口 |⑥--⑦|
口口⑤① |⑧-⑨-|
12
②口口口 |①-②③|
口③口口 |④-⑤-|
④口口口
口口⑤①

口⑦口口
口口⑧⑥
口⑨⑪口 |⑥-⑦⑧|
口口口⑩ |⑨-⑩⑪|
13
①口①口 |①--②|
⑤口口④ |③-④-|
⑤口口④ |⑤---|
口③②口 |----|
14
⑤口⑦② |①-②③|
口⑧③口 |④-⑤-|
口口⑨④ |⑥-⑦⑧|
⑩口⑥① |⑨-⑩-|
15
⑤口口② |①-②③|
⑦⑧③口 |④-⑤-|
口口口④ |⑥--⑦|
口⑥⑨① |⑧-⑨-|
16
口口口① |①---|
口口口① |②-③-|
②口③口
②口口口

⑥④口⑦
④⑦⑥口
口口口口 |④--⑤|
口口口⑤ |⑥-⑦-|
17
口⑥⑥口 |①--②③④|
⑦口口⑦ |⑤-⑥-|
②③④⑤ |⑦---|
口①①口 |----|
18
口④口口 |①---|
口口③⑤ |--②③|
口⑥口② |④-⑤-|
①口口⑦ |⑥-⑦-|
19
口口口口 |--①-|
口口口口 |②-③-|
③⑥④口 |④---|
⑤①②口 |--⑤⑥|
20
③口口口 |①--②|
②口①口 |③-④-|
口口口口
口口④口

口口⑥⑤
口口⑧⑦
口口口口 |⑤-⑥-|
口口口口 |⑦-⑧-|
21
⑤⑥口口 |①---②③|
⑥⑤口口 |④-⑤-|
②③④① |⑥---|
口口口口 |----|
22
口④口口 |①---|
口口③⑤ |--②③|
口⑥口② |④-⑤-|
①口口⑦ |⑥-⑦-|
23
口口口口 |--①-|
口口口口 |②-③-|
③口④口 |④---|
⑤①②口 |⑤---|
24
①⑥④口 |①---|
口口口口 |②-③-|
口口口③ |④-⑤-|
口⑤⑦② |⑥-⑦-|
25
口口口① |①---|
口口口口 |----|
口口口口 |----|
①口口口 |----|
26
口口⑤口 |①---|
⑥④口口 |②-③④|
③口⑦口 |⑤-⑥-|
⑧②口① |⑦-⑧-|
27
口口口口 |--①-|
口口口口 |②-③-|
口④⑥③ |④---|
口②①⑤ |--⑤⑥|
28
口口口③ |①--②|
口①口② |③-④-|
口口口口
口④口口

⑤⑥口口
⑦⑧口口
口口口口 |⑤-⑥-|
口口口口 |⑦-⑧-|
29
口口⑤⑥ |①---②③|
口口⑥⑤ |④-⑤-|
①④③② |⑥---|
口口口口 |----|
30
①④口口 |①---|
口口③⑤ |--②③|
口⑥口② |④-⑤-|
口口⑦① |⑥-⑦-|
31
①③③② |①---|
口④④口 |②---|
口⑤⑤口 |③-④-|
②⑥⑥① |⑤-⑥-|
32
③口口④ |①---|
①口口② |②---|
②口口① |③---|
④口口③ |④---|
33
⑯⑧⑦⑮ |①②③④|
⑭⑥⑤⑬ |⑤⑥⑦⑧|
⑫④③⑪ |⑨⑩⑪⑫|
⑩②①⑨ |⑬⑭⑮⑯|
34
口口口口 |①---|
口③口口 |②--③|
口①①口
口口②口

口④口口
口口⑥⑤
口⑦口口 |④-⑤-|
口口口口 |⑥-⑦-|
35
④口口① |①-②-|
⑥④口⑦ |③-④-|
⑥口②⑦ |⑤---|
③⑤⑤② |⑥-⑦-|
36
口①④① |①---|
口③口口 |②--③|
⑤⑥口⑦ |④-⑤-|
②口口口 |⑥-⑦-|
37
②③口口 |①-②③|
④口口口 |④-⑤-|
⑥口口口 |⑥---|
⑤口①口 |----|
38
口口口口 |①---|
③口口口 |②--③|
口①①口
口口②口

④口口口
口口⑥⑤
口⑦口口 |④-⑤-|
口口口口 |⑥-⑦-|
39
④口口① |①-②-|
口④⑦口 |③-④-|
口⑥②口 |⑤---|
③⑤⑤② |⑥-⑦-|
40
口①④① |①---|
口③口口 |②--③|
⑤⑥口⑦ |④-⑤-|
②口口口 |⑥-⑦-|
41
②③口口 |①-②③|
④口口口 |④-⑤-|
⑥口口口 |⑥---|
⑤口①口 |----|
42
口口口口 |①---|
口③口口 |②--③|
口①①口
口口②口

口④口口
口口⑥⑤
口⑦口口 |④-⑤-|
口口口口 |⑥-⑦-|
43
口④④① |①-②-|
⑤口口⑥ |--③-|
⑤口②⑥ |④---|
口③③② |⑤-⑥-|
44
①口④① |①---|
口③口口 |②--③|
⑤⑥口⑦ |④-⑤-|
②口口口 |⑥-⑦-|
45
②③口口 |①-②③|
④口口口 |④-⑤-|
⑥口口口 |⑥---|
⑤口①口 |----|
46
口口口口 |①-②-|
口口口③ |③---|
口口口② |④-⑤-|
④⑤⑥① |⑥---|
47
①⑥⑤④ |①-②-|
②口口口 |③---|
③口口口 |④-⑤-|
口口口口 |⑥---|
48
④④④④ |①---|
口③③③ |②---|
口口②② |③---|
口口口① |④---|
49
⑥口口口 |①-②-|
⑦口⑨口 |③-④-|
⑧⑤③口 |⑤-⑥⑦|
④①①② |⑧-⑨-|
50
口⑨⑧② |①-②-|
⑧①口⑦ |③④⑤⑥|
⑨口⑥⑤ |⑦-⑧-|
口口④③ |⑨---|
51
⑨⑧口① |①-②-|
口②口⑦ |③④⑤⑥|
⑧⑨⑥⑤ |⑦-⑧-|
口口④③ |⑨---|
52
口口口① |①-②-|
②⑧口⑦ |③④⑤⑥|
⑪⑫⑥⑤ |⑦-⑧-|
⑨⑩④③ |⑨⑩⑪⑫|
53
⑨④口② |①--②|
①⑤③口 |③-④-|
口口⑤④ |⑤---⑥⑦|
⑥⑦⑧口 |⑧-⑨-|
54
口④①口 |①---|
口口③口 |--②③|
口②⑨口 |④--⑤⑥⑦|
⑧⑦⑥⑤ |⑧-⑨-|
55
④⑤口③ |①--②|
口④⑤② |③-④-|
①口⑦⑥ |⑤---|
口口口口 |--⑥⑦|
56
③⑥口⑤ |①---|
口⑦④口 |②---|
口口口口 |③--④|
②口口① |⑤-⑥⑦|
57
③口②口 |①--②|
⑤⑥⑦④ |--③-|
②①口③ |④-⑤-|
④口口口 |⑥-⑦-|
58
口⑨⑧① |①-②-|
⑧口口⑦ |③④⑤⑥|
⑨②⑥⑤ |⑦-⑧-|
口口④③ |⑨---|
59
⑨⑧口① |①-②-|
口②口⑦ |③④⑤⑥|
⑧⑨⑥⑤ |⑦-⑧-|
口口④③ |⑨---|
60
口口口① |①-②-|
②⑧口⑦ |③④⑤⑥|
⑪⑫⑥⑤ |⑦-⑧-|
⑨⑩④③ |⑨⑩⑪⑫|
61
口④⑨② |①--②|
①⑤③⑨ |③-④-|
口口⑤④ |⑤---⑥⑦|
⑥⑦⑧口 |⑧-⑨-|
62
①口口② |①---|
③口口口 |--②③|
口口口口
口口口①

口⑤⑧口
口口口⑨
⑦口④⑥ |④⑤⑥⑦|
口口口⑨ |⑧-⑨-|
63
①⑥口口 |①---②③|
⑤①⑥口 |④-⑤-|
口⑤口⑧ |⑥---|
②③④⑦ |--⑦⑧|
64
③⑤⑤口 |①--②|
⑧②⑧① |③-④-|
口⑦口⑦ |⑤-⑥-|
④⑥⑥口 |⑦-⑧-|
65
③口口② |①--②|
⑥①口④ |--③-|
④口①⑤ |④---|
②口口③ |⑤-⑥-|
66
口口②⑦ |①-②③|
口③⑧口 |④-⑤-|
口⑩④⑨ |⑥-⑦⑧|
⑤⑥①口 |⑨-⑩-|
67
②⑥⑧⑦ |①-②③|
⑥③口⑤ |④-⑤-|
④⑨⑨口 |⑥--⑦|
口口⑤① |⑧-⑨-|
68
②口口口 |①-②③|
口③口口 |④-⑤-|
④口口口
口口⑤①

口⑦口口
口口⑧⑥
口⑨⑪口 |⑥-⑦⑧|
口口口⑩ |⑨-⑩⑪|
69
①口①口 |①--②|
⑤口口④ |③-④-|
⑤口口④ |⑤---|
口③②口 |----|
70
⑤口⑦② |①-②③|
口⑧③口 |④-⑤-|
口口⑨④ |⑥-⑦⑧|
⑩口⑥① |⑨-⑩-|
71
⑤口口② |①-②③|
⑦⑧③口 |④-⑤-|
口口口④ |⑥--⑦|
口⑥⑨① |⑧-⑨-|
72
口②口口 |①-②③|
口口③口 |④-⑤-|
口④口⑤
口口口①

⑦口口口
口⑧口口
⑨口⑥口 |⑥-⑦⑧|
口口口⑩ |⑨-⑩-|
73
口②口口 |①-②③|
口口③口 |④-⑤-|
口④口⑤
口口①口

⑦口口口
⑧口口口
⑨口⑥口 |⑥--⑦⑧⑨|
⑩口⑪口 |⑩-⑪-|
74
口②口口 |①-②③|
口口③口 |④-⑤-|
口④口⑤
口口口①

⑦口口口
口⑧口口
⑨口⑥口 |⑥-⑦⑧|
口口口⑩ |⑨-⑩-|
75
口②⑤口 |①-②③|
⑦⑧③口 |④-⑤-|
口④⑨口 |⑥--⑦|
⑥口①口 |⑧-⑨-|
76
口口⑦② |①-②③|
口⑧③口 |④-⑤-|
⑥⑪⑨④ |⑥-⑦⑧|
⑤①口⑩ |⑨-⑩⑪|
77
①口口① |①--②|
⑤口②④ |③-④-|
⑤口口④ |⑤---|
口③口口 |----|
78
口②口口 |①-②③|
口口③口 |④-⑤-|
口④口⑤
口口口①

⑦口口口
口⑧口口
⑨口⑥口 |⑥-⑦⑧|
口口口⑩ |⑨-⑩-|
79
口②⑤口 |①-②③|
⑦⑧③口 |④-⑤-|
口④⑨口 |⑥--⑦|
⑥口①口 |⑧-⑨-|
80
③口口口 |①---|
口口②口 |②-③-|
口②口口
口①①③

口⑦⑦④
口⑥口口
口口⑤口 |④--⑤|
④⑦⑦口 |⑥-⑦-|
81
③口口口 |①---|
⑦⑥⑤④ |②---|
①⑧⑧② |③--④⑤⑥|
口口口③ |⑦-⑧-|
82
⑧②①⑦ |①②③④|
⑫⑪⑩⑨ |⑤⑥⑦⑧|
⑥⑭⑬⑤ |⑨⑩⑪⑫|
⑯④③⑮ |⑬⑭⑮⑯|
83
③①①③ |①--②|
口④④口 |--③-|
②口口② |④---|
口④④口 |----|

不確定度: 0

最終更新:2017年08月15日 23:16