SPACE VILLAGE
サイバー劇レコ

ADVANCED

Level: 8
BPM: 170
Notes: 567

1
口口口口 |----|
口口口口 |----|
口口口口 |----|
口口口口 |----|
2
①口口② |①---|
口③④口 |②---|
口⑤⑥口 |③-④-|
口口口口 |⑤-⑥-|
3
②口口① |①---|
口④③口 |②---|
口⑥⑤口 |③-④-|
口口口口 |⑤-⑥-|
4
①口口② |①---|
口③④口 |②---|
口⑤⑥口 |③-④-|
口口口口 |⑤-⑥-|
5
②口口① |①---|
口④③口 |②---|
口⑥⑤口 |③-④-|
口口口口 |⑤-⑥-|
6
①口口② |①---|
口口口口 |②---|
③④⑤⑥ |③-④-|
口口口口 |⑤-⑥-|
7
②口口① |①---|
⑥⑤④③ |②---|
口口口口 |③-④-|
口口口口 |⑤-⑥-|
8
①口口② |①---|
口口口口 |②---|
③④⑤⑥ |③-④-|
口口口口 |⑤-⑥-|
9
②⑤⑤① |①---|
口口④③ |②---|
口口口口 |③-④-|
口口口口 |⑤---|
10
①③口① |①---|
口④口② |②---|
口口⑤口 |③-④-|
口口⑥口 |⑤-⑥-|
11
②口⑥① |①---|
口口⑤口 |②---|
口④口口 |③-④-|
口③口口 |⑤-⑥-|
12
①③口① |①---|
口④口② |②---|
口口⑤口 |③-④-|
口口⑥口 |⑤-⑥-|
13
①口⑥① |①---|
②口⑤口 |②---|
口④口口 |③-④-|
口③口口 |⑤-⑥-|
14
①口口① |①---|
口口口② |②---|
③④⑤⑥ |③-④-|
口口口口 |⑤-⑥-|
15
②口口① |①---|
③④⑤⑥ |②---|
口口口口 |③-④-|
口口口口 |⑤-⑥-|
16
①口口① |①---|
②口口口 |②---|
③④⑤⑥ |③-④-|
口口口口 |⑤-⑥-|
17
②口⑥① |①---|
口⑤口口 |②---|
口口④口 |③-④-|
口③口口 |⑤-⑥-|
18
①口⑥① |①---|
口口⑤口 |②---|
②口④② |③-④-|
口口③口 |⑤-⑥-|
19
②③口② |①---|
口④口口 |②---|
①⑤口① |③-④-|
口⑥口口 |⑤-⑥-|
20
口②口② |①---|
①口①口 |②---|
⑥⑤④③ |③-④-|
口口口口 |⑤-⑥-|
21
口①口① |①---|
③④⑤⑥ |②---|
口口口口 |③-④-|
口②口② |⑤-⑥-|
22
①口⑥① |①---|
口⑤口口 |②---|
②口④② |③-④-|
口③口口 |⑤-⑥-|
23
①③口① |①---|
口口④口 |②---|
②⑤口② |③-④-|
口口⑥口 |⑤-⑥-|
24
②口②口 |①-②-|
⑤①口① |--③-|
③⑥③口 |④-⑤-|
口④⑦④ |⑥-⑦-|
25
口口口口 |①---|
④①④① |②-③-|
口口②口 |④---|
⑤③⑤口 |⑤---|
26
①口口③ |①---②-|
口④⑤② |③---④-|
⑨⑥⑦口 |⑤-⑥-⑦-|
口⑧口口 |⑧---⑨-|
27
口口口③ |①---②-|
①④⑤② |③---④-|
口⑥⑦⑨ |⑤-⑥-⑦-|
口⑧口口 |⑧---⑨-|
28
③口口口 |①---②-|
②口口① |③---④-|
口口口口
口口④口

口口口口
口口口⑧
口⑦⑤口 |⑤---⑥-|
口⑥口口 |⑦---⑧-|
29
口⑦口① |①---②-|
③⑥⑤口 |③---④-|
②口④⑧ |⑤---⑥-|
口口口口 |⑦---⑧-|
30
③口口① |①---②-|
口④口口 |③---④-|
②口口口
口口口口

口口口口
口口⑤口
⑨⑥⑦口 |⑤-⑥-⑦-|
口⑧口口 |⑧---⑨-|
31
①口口③ |①---②-|
口④⑤口 |③---④-|
⑨⑥⑦② |⑤-⑥-⑦-|
口⑧口口 |⑧---⑨-|
32
①口口⑥ |①-----|
④口口② |②---③-|
⑦口口⑤ |④---⑤-|
③口口口 |⑥---⑦-|
33
④①①④ |①---②-|
口②②口 |--③---|
⑤③③⑤ |④-----|
口口口口 |⑤-----|
34
口①口③ |①---②-|
口口口② |③---④-|
口④口口
口口口口

⑨⑧口口
口⑥⑦口
口口⑤口 |⑤-⑥-⑦-|
口口口口 |⑧---⑨-|
35
口口口① |①-②-③-|
②⑩⑨③ |④-⑤-⑥-|
④口⑧⑤ |⑦---⑧-|
⑥口口⑦ |⑨---⑩-|
36
①口口① |①---|
②口口② |----|
口口口口 |②---|
口口口口 |----|
37
口口口口 |①---|
口口口口 |----|
口①①口 |②---|
口②②口 |----|
38
口口①⑤ |①---②-|
③⑥⑦④ |③---④-|
②⑧⑨口 |⑤---⑥-|
口口口口 |⑦-⑧-⑨-|
39
口口口口 |①---②-|
⑤⑧⑦③ |③---④-|
④口⑥② |⑤---⑥-|
口①口口 |⑦---⑧-|
40
①口口① |①---|
②口口② |----|
口口口口 |②---|
口口口口 |----|
41
口口口口 |①---|
口口口口 |----|
口①①口 |②---|
口②②口 |----|
42
口口口口 |①-②-|
①②③④ |③-④-|
⑧⑦⑥⑤ |⑤-⑥-|
口口口口 |⑦-⑧-|
43
口口口口 |①-②-|
口⑤⑤口 |③-④-|
口口口口 |⑤---|
①②③④ |----|
44
口口口口 |①-②-|
⑤⑥⑦⑧ |③-④-|
④③②① |⑤-⑥-|
口口口口 |⑦-⑧-|
45
④③②① |①-②-|
口口口口 |③-④-|
口⑤⑤口 |⑤---|
口口口口 |----|
46
口⑧①口 |①-②-|
口⑦②口 |③-④-|
口③⑥口 |⑤-⑥-|
口④⑤口 |⑦-⑧-|
47
口口口① |①-②-|
口口口② |③-④-|
③⑤⑤口 |⑤---|
④口口口 |----|
48
口①⑧口 |①-②-|
口②⑦口 |③-④-|
口⑥③口 |⑤-⑥-|
口⑤④口 |⑦-⑧-|
49
①口口口 |①-②-|
②口口口 |③-④-|
口⑤⑤③ |⑤---|
口口口④ |----|
50
④口口③ |①---|
③口口④ |--②-|
口②口口 |③---|
口①①口 |④---|
51
口口口口 |①---|
口①①口 |----|
口口口口 |----|
口口口口 |----|
52
口①口口 |①---|
①口口① |----|
口口①口
口口口口

口口口口
口口口口
口②③口 |----|
口口口口 |--②③|
53
口①口① |①---|
③口③口 |②---|
口口口口 |③---|
④②④② |④---|
54
②口①口 |①---|
④①口② |②---|
⑤③③口 |③---|
口口口口 |--④⑤|
55
口口口口 |①---|
口⑤⑤② |②③④-|
口口口③ |⑤---|
①⑥⑥④ |⑥---|
56
口口口口 |①-②-|
①口③口 |③-④-|
口②口④
口口口口

⑤口⑤口
口⑤口⑤
口⑥⑦口 |⑤---|
口口口口 |--⑥⑦|
57
口①口① |①---|
④口④口 |②-③-|
③口口③ |④---|
⑤②⑤② |⑤---|
58
①口口① |①--②|
⑤②③口 |--③-|
⑥③②口 |④---|
口④④口 |--⑤⑥|
59
口口口口 |①---|
口⑤⑤② |②③④-|
口口口③ |⑤---|
①⑥⑥④ |⑥---|
60
口②口④ |①-②-|
①口③口 |③-④-|
口⑦口⑤ |⑤-⑥-|
⑧口⑥口 |⑦-⑧-|
61
①口①口 |①---|
②①③① |②-③-|
④口⑤口 |④-⑤-|
⑥口⑦口 |⑥-⑦-|
62
口⑦口⑧ |①-②-|
口⑤口⑥ |③-④-|
口③口④ |⑤-⑥-|
口①口② |⑦-⑧-|
63
③④⑤⑥ |①---|
口②②口 |②---|
口①①口 |③-④-|
口口口口 |⑤-⑥-|
64
口口口口 |①--②|
②⑤⑤② |--③-|
①⑥⑦① |④--⑤|
③④④③ |--⑥⑦|
65
口①口① |①---|
④口④口 |②-③-|
③口口③ |④---|
⑤②⑤② |⑤---|
66
①口口① |①--②|
口②③口 |--③-|
口③②口
口口口口

⑤⑥口口
口口口口
口口口口 |④---|
口④④口 |⑤-⑥-|
67
口口②① |①-②-|
③④⑥⑤ |③-④-|
⑦⑧口口 |⑤-⑥-|
口口口口 |⑦-⑧-|
68
口口口口 |①-②-|
口口口口 |③-④-|
⑦⑧②① |⑤-⑥-|
③④⑥⑤ |⑦-⑧-|
69
口口口口 |①---|
①②③① |--②-|
口④口口 |③---|
口口口口 |④---|
70
④口④口 |①---|
口③口③ |②---|
②口②口 |③---|
口①口口 |④---|
71
口口口口 |①---|
口②③口 |--②-|
①口④① |③---|
口口口口 |④---|
72
口④口④ |①---|
③口③口 |②---|
口②口② |③---|
口口①口 |④---|
73
口口口口 |①---|
口②②口 |②---|
①口口①
口口口口

口口口口
③口口③
口口口④ |③---|
口口口口 |④---|
74
①口口① |①---|
③②②③ |②---|
④口口口 |③---|
口口口口 |④---|
75
口①①口 |①---|
口②②口 |②---|
口③③口 |③---|
口④④口 |④---|
76
口①①口 |①---|
①口口① |----|
口口口口 |----|
口口口口 |----|
77
口口口⑤ |①---|
②③④口 |②-③-|
口①①口 |④---|
口口口口 |--⑤-|
78
口口①口 |①---|
口口口口 |--②-|
②口口口
口口口口

口口⑥口
口④⑤口
口③口口 |③-④-|
口口口口 |⑤-⑥-|
79
口口口① |①---|
口口口口 |----|
口口口口 |----|
口口口口 |----|

不確定度: 0

最終更新:2017年08月15日 23:15