SPACE VILLAGE
サイバー劇レコ

EXTREME

Level: 9
BPM: 170
Notes: 751

1
口口口口 |----|
口口口口 |----|
口口口口 |----|
口口口口 |----|
2
口④口⑤ |①-②-|
口⑥③口 |③-④-|
①口⑦口 |⑤-⑥-|
口口②⑧ |⑦-⑧-|
3
口③⑥口 |①-②-|
①⑦口⑤ |③-④-|
⑧④口口 |⑤-⑥-|
②口口口 |⑦-⑧-|
4
②④口⑤ |①-②-|
口口⑥③ |③-④-|
口⑦①口 |⑤-⑥-|
⑧口口口 |⑦-⑧-|
5
①口口口 |①-②-|
口⑤⑥② |③-④-|
③⑦口口 |⑤-⑥-|
⑧口口④ |⑦-⑧-|
6
④口口① |①-②-|
口⑥⑤口 |③-④-|
②口⑦③ |⑤-⑥-|
口口口⑧ |⑦-⑧-|
7
口①口⑥ |①-②-|
口口⑦口 |③-④-|
③⑧口② |⑤-⑥-|
口⑤④口 |⑦-⑧-|
8
口口①口 |①-②-|
口④口① |③-④-|
②口口③
口口③口

⑥⑧⑦⑤
口口⑤⑦
口口口口 |⑤-⑥-|
口口口口 |⑦-⑧-|
9
口口口口 |①-②-|
口口口口 |③-④-|
④②③①
口口①③

口⑥⑤口
口口口⑤
口口口口 |⑤-⑥-|
口⑦⑦口 |⑦---|
10
①口口① |①-②-|
④⑥口③ |③-④-|
②口⑦⑤ |⑤-⑥⑦|
口⑧⑨口 |⑧-⑨-|
11
①⑤口③ |①-②-|
②⑥⑦④ |③-④-|
口⑧口口 |⑤-⑥-|
口口⑨口 |⑦⑧⑨-|
12
①口口① |①-②-|
③④口口 |③-④⑤|
口口⑤②
口口口口

口口口口
口口口⑦
⑧口口⑨ |⑥-⑦-|
口⑥口口 |⑧-⑨-|
13
①口①③ |①-②-|
②⑤⑥④ |③-④-|
口⑦口口 |⑤-⑥⑦|
口⑨⑧口 |⑧-⑨-|
14
①口①⑤ |①-②-|
②⑥口③ |③-④-|
④口⑦口 |⑤-⑥⑦|
口⑧⑨口 |⑧-⑨-|
15
①⑤口③ |①-②-|
②⑥⑦④ |③-④-|
口⑧口口 |⑤-⑥-|
口口⑨口 |⑦⑧⑨-|
16
③口⑤① |①-②-|
①④口③ |③-④-|
⑦⑥②⑦ |⑤-⑥-|
口⑤⑧口 |⑦-⑧-|
17
①口口③ |①-②-|
③口口① |③-④-|
口④②口
口口口口

口⑤⑤口
口⑥口口
口口⑧口 |⑤-⑥-|
口⑦⑦口 |⑦-⑧-|
18
③口口① |①-②-|
⑤⑥⑦⑧ |③-④-|
⑧⑦⑥⑤ |⑤-⑥-|
④口口② |⑦-⑧-|
19
⑧③①⑤ |①-②-|
⑦口口⑥ |③-④-|
⑥口口⑦ |⑤-⑥-|
⑤④②⑧ |⑦-⑧-|
20
口②口口 |①---|
口口①口 |②---|
口①口口
口口②口

口口口口
③④⑤⑥
⑥⑤④③ |③-④-|
口口口口 |⑤-⑥-|
21
⑤②①⑥ |①---|
③口口④ |②---|
④口口③ |③-④-|
⑥①②⑤ |⑤-⑥-|
22
⑤①③⑧ |①-②-|
⑥口口⑦ |③-④-|
⑦口口⑥ |⑤-⑥-|
⑧②④⑤ |⑦-⑧-|
23
口③①口 |①-②-|
⑧⑦⑥⑤ |③-④-|
⑤⑥⑦⑧ |⑤-⑥-|
口④②口 |⑦-⑧-|
24
③口②口 |①-②-|
⑤⑥⑦口 |--③-|
口⑦⑥⑤ |④-⑤-|
④口①口 |⑥-⑦-|
25
口①④② |①---|
③⑤⑤口 |②-③-|
②口口口 |④---|
④口①③ |⑤---|
26
⑧口口⑤ |①---②-|
③⑥口① |③---④-|
口⑦④口 |⑤-⑥-⑦-|
口②⑨口 |⑧---⑨-|
27
⑧口口口 |①---②-|
③⑥⑤① |③---④-|
口⑦⑨口 |⑤-⑥-⑦-|
口②口④ |⑧---⑨-|
28
口③口① |①---②-|
⑦口⑤口 |③---④-|
②口⑧口 |⑤---⑥-|
口⑥口④ |⑦---⑧-|
29
⑤③口① |①-----|
口口口口 |②-----|
口④口⑥ |③---④-|
口口口② |⑤---⑥-|
30
⑧③①⑤ |①---②-|
口⑥口口 |③---④-|
②⑦④口 |⑤-⑥-⑦-|
口口⑨口 |⑧---⑨-|
31
⑧口⑤口 |①---②-|
③⑥口① |③---④-|
口⑦⑨④ |⑤-⑥-⑦-|
口②口口 |⑧---⑨-|
32
⑥口④① |①-----|
口口口口 |②---③-|
口⑤口③ |④---⑤-|
口口⑦② |⑥---⑦-|
33
口④④② |①---②-|
③⑤⑤① |--③---|
①口口③ |④-----|
口②口口 |⑤-----|
34
⑤⑧⑦⑥ |①---②-|
口口口③ |③---④-|
①④①⑨ |⑤-⑥-⑦-|
口口②口 |⑧---⑨-|
35
⑧⑨口口 |①-②-③-|
⑩口⑤④ |④-⑤-⑥-|
⑥⑦①口 |⑦---⑧-|
②③口口 |⑨---⑩-|
36
口口口口 |①---|
口①②口 |----|
②口口① |②---|
②②①① |----|
37
①①②② |①-----|
①④口② |------|
口②①口 |②---③-|
口⑤③口 |④---⑤-|
38
⑤口③⑦ |①---②-|
⑧⑨①口 |③---④-|
口④⑥② |⑤---⑥-|
口口口口 |⑦-⑧-⑨-|
39
⑤口③⑦ |①---②-|
口口①⑧ |③---④-|
口④⑥② |⑤---⑥-|
口口口口 |⑦---⑧-|
40
口口口口 |①---|
口②①口 |----|
①口口② |②---|
①①②② |----|
41
②②①① |①---|
②口口① |----|
口①②口 |②---|
③④口口 |③-④-|
42
口口口口 |①-②③|
口口口② |④-⑤-|
口口⑤③
口口①④

口口口口
⑥⑦⑧⑨
口口口口 |⑥-⑦-|
口口口口 |⑧-⑨-|
43
口口⑦口 |①-②-|
⑤口口口 |③-④-|
④③②① |⑤-⑥-|
口口⑥口 |⑦---|
44
⑨⑧⑦⑥ |①-②③|
口②口① |④-⑤-|
⑤③口口 |⑥-⑦-|
口④口口 |⑧-⑨-|
45
⑧口口⑥ |①-②③|
①口②口 |④-⑤-|
口口③⑤ |⑥-⑦-|
口⑦④口 |--⑧-|
46
⑨⑧⑦⑥ |①-②③|
口①②口 |④-⑤-|
口口③⑤ |⑥-⑦-|
口口④口 |⑧-⑨-|
47
⑦口口口 |①-②-|
口口③② |③-④-|
口口①④ |⑤-⑥-|
⑥口⑤口 |⑦---|
48
口口②口 |①-②③|
①口③⑤ |④-⑤-|
口①④口
口口口口

⑥⑧口⑨
⑧⑥口口
口口口⑦ |⑥-⑦-|
口口口口 |⑧-⑨-|
49
口口②⑧ |①-②③|
口⑥③⑤ |④-⑤-|
口①④口 |⑥-⑦-|
口口⑦口 |--⑧-|
50
③口②口 |①---|
口口口④ |--②-|
口①口口 |③---|
口口口口 |④---|
51
口口口④ |①--②|
口⑥③口 |--③-|
⑤①口口 |④--⑤|
口口②口 |--⑥-|
52
③①②口 |①-②-|
①口口② |--③-|
口②①口
口③口口

口口口④
口口口⑤
口口口⑥ |--④-|
口口④口 |--⑤⑥|
53
②②③③ |①---|
口口口口 |②-③-|
④③②⑤ |④---|
①⑤④① |⑤---|
54
口①③⑤ |①-②-|
①②⑤口 |③-④-|
③⑤④⑦ |⑤---|
⑤口⑦⑥ |--⑥⑦|
55
②③④口 |①---|
③⑥⑤① |②③④-|
④⑤口口 |⑤---|
口①⑥口 |⑥---|
56
④口口③ |①-②-|
②口④① |③-④-|
口③口口
①口口②

口口⑤口
⑥⑤口口
⑦口⑤口 |⑤---|
口⑤口口 |--⑥⑦|
57
③③②② |①---|
口口口口 |②-③-|
⑤②③④ |④---|
①④⑤① |⑤---|
58
④③①② |①--②|
口④②① |--③-|
⑥②④③ |④---|
⑤⑥口④ |--⑤⑥|
59
口④③② |①---|
①⑤⑥③ |②③④-|
口口⑤④ |⑤---|
口⑥①口 |⑥---|
60
⑧⑤口⑧ |①-②-|
③⑦⑥② |③-④-|
①⑥⑦④ |⑤-⑥⑦|
口口⑤口 |--⑧-|
61
⑦⑧①口 |①---|
口口口① |②-③-|
①⑥④② |④-⑤-|
口①⑤③ |⑥-⑦⑧|
62
口口①② |①②-③|
口③⑤口 |-④-⑤|
口⑦④口 |--⑥-|
口口⑥口 |--⑦-|
63
②③⑫① |①-②③|
⑩⑪⑨⑧ |--④⑤|
口口口口 |⑥⑦-⑧|
④⑤⑦⑥ |⑨⑩⑪⑫|
64
②①口③ |①②-③|
口口口口 |--④-|
③口④④
口口口口

口口口口
⑦口⑥⑥
⑧⑤口口 |⑤--⑥|
口口⑤口 |--⑦⑧|
65
口③②口 |①---|
口④⑤口 |②-③-|
⑤②③④ |④---|
①口口① |⑤---|
66
口③②⑤ |①--②|
口④④⑥ |--③-|
口②③⑦ |④---|
口①①⑧ |⑤⑥⑦⑧|
67
⑯⑤⑥⑨ |①②③④|
⑮⑦⑧⑩ |⑤⑥⑦⑧|
⑭③④⑪ |⑨⑩⑪⑫|
⑬①②⑫ |⑬⑭⑮⑯|
68
⑫①②口 |①②③④|
口③④⑩ |⑤⑥⑦⑧|
口⑤⑥⑪ |⑨-⑩-|
⑨⑦⑧口 |⑪-⑫-|
69
口③口口 |①---|
口①①④ |--②-|
②口口口 |③---|
口口口口 |④---|
70
②④④③ |①---|
口③②口 |②---|
③④④② |③---|
口①口口 |④---|
71
④口③口 |①---|
口口口口 |--②-|
口口口② |③---|
①①①① |④---|
72
口口口② |①---|
口②口口 |②---|
②口①口
口口口口

③④④口
口口③口
口④④③ |③---|
口口口口 |④---|
73
⑤⑤口口 |①---|
②口口口 |②③④-|
③⑥口口 |⑤---|
④①①口 |⑥---|
74
口口⑤⑤ |①---|
口①①② |②③④-|
口口⑥③ |⑤---|
口口口④ |⑥---|
75
口口口口 |①---|
口②②① |②---|
口①口口
①口口口

③口口③
口口口口
口口口口 |③---|
④口口④ |④---|
76
③①口⑤ |①--②|
①口⑥口 |--③-|
④口②① |④---|
口口①口 |⑤-⑥-|
77
⑤①①口 |①---|
口④口② |②-③-|
口①①口 |④---|
口口口③ |--⑤-|
78
④口口口 |①---|
口⑤②口 |--②-|
①口⑥口 |③-④-|
口口③口 |⑤-⑥-|
79
口口口① |①---|
口口口口 |----|
口口口口 |----|
口口口口 |----|

不確定度: 0

最終更新:2017年08月15日 23:14