スペースカーニバル
shooting star

BASIC

Level: 4
BPM: 160
Notes: 264

1
口口口口 |----|
口口口口 |----|
口口口口 |----|
口口口口 |----|
2
口口口口 |①---|
口口口口 |----|
口①①口 |----|
口口口口 |----|
3
口口口口 |①---|
口①①口 |----|
口口口口 |----|
口口口口 |----|
4
口口口口 |①---|
①口口① |----|
口口口口 |----|
口口口口 |----|
5
口口口口 |①---|
口口口口 |----|
①口口① |----|
口口口口 |----|
6
口口口口 |①---|
口口口口 |----|
口①①口 |----|
口口口口 |----|
7
口口口口 |①---|
口①①口 |----|
口口口口 |----|
口口口口 |----|
8
口①①口 |①---|
口口口口 |----|
口口口口 |----|
②口口② |--②-|
9
口口口口 |----|
口口口口 |①---|
口①②口 |②---|
③口口③ |--③-|
10
口口口口 |----|
口①②口 |①---|
口口口口 |②---|
③口口③ |--③-|
11
口①②口 |----|
③口口③ |①---|
口口口口 |②---|
口口口口 |--③-|
12
③口口口 |--①-|
口口口口 |--②-|
①口口① |----|
②口口② |--③-|
13
口口①② |----|
口口口口 |①---|
口口口③ |②---|
口口口口 |--③-|
14
口口③口 |----|
口口口口 |①---|
②①口口 |②---|
口口口口 |--③-|
15
口口口口 |----|
口口口口 |①---|
口口①口 |②---|
口③②口 |--③-|
16
口④③口 |----|
口②①口 |①-②-|
口口口口 |③-④-|
⑤口口口 |--⑤-|
17
口口口口 |----|
口口口③ |①---|
口口口口 |②---|
口口①② |--③-|
18
口③口口 |----|
②①口口 |①---|
口口口口 |②---|
口口口口 |--③-|
19
口口口口 |----|
口口口口 |①---|
口①口口 |②---|
口②③口 |--③-|
20
口③④口 |----|
口①②口 |①-②-|
口口口口 |③-④-|
口口口口 |----|
21
①口口口 |----|
口②口口 |①---|
口口③口 |②---|
口口口口 |③---|
22
口口口② |①---|
口口③口 |②---|
口④口口 |③---|
口口口① |④---|
23
口口口口 |①---|
口口口口 |②---|
③④口口 |③---|
①②口口 |④---|
24
口口口口 |①---|
口口③④ |②---|
口口①② |③---|
口口口口 |④---|
25
口口口① |----|
口口②口 |①---|
口③口口 |②---|
口口口口 |③---|
26
②口口口 |①---|
口③口口 |②---|
口口④口 |③---|
①口口口 |④---|
27
口口口口 |①---|
口口口口 |----|
口口口口 |----|
口口口① |----|
28
口③口口 |①---|
口⑤②口 |②-③-|
口④口口 |--④-|
口①①口 |--⑤-|
29
③口口口 |--①-|
④口口口 |--②-|
口口②口 |--③-|
口口①口 |--④-|
30
口口口④ |--①-|
口口口口 |--②-|
①②口口 |--③-|
口③口口 |--④-|
31
口口口口 |----|
口③口口 |①---|
口口①口 |②---|
口口②口 |--③-|
32
口口口口 |--①-|
口④口口 |--②-|
②③口口 |--③-|
口①口口 |--④-|
33
③口口口 |--①-|
④口口口 |--②-|
口口②口 |--③-|
口口①口 |--④-|
34
口口口④ |--①-|
口口口口 |--②-|
①②口口 |--③-|
口③口口 |--④-|
35
口③口口 |----|
口口口口 |①---|
口口①口 |②---|
口口②口 |--③-|
36
口口口口 |----|
口②口口 |----|
口①口口 |--①-|
口口口口 |--②-|
37
③口口口 |--①-|
④口口口 |--②-|
口口②口 |--③-|
口口①口 |--④-|
38
口口口④ |--①-|
口口口口 |--②-|
①②口口 |--③-|
口③口口 |--④-|
39
口口口口 |----|
口③口口 |①---|
口口①口 |②---|
口口②口 |--③-|
40
口口口口 |--①-|
口④口口 |--②-|
②③口口 |--③-|
口①口口 |--④-|
41
③口口口 |--①-|
④口口口 |--②-|
口口②口 |--③-|
口口①口 |--④-|
42
口口口④ |--①-|
口口口口 |--②-|
①②口口 |--③-|
口③口口 |--④-|
43
口③口口 |----|
口口口口 |①---|
口口①口 |②---|
口口②口 |--③-|
44
口口口口 |----|
①口口① |----|
口口口口 |----|
口口口口 |--①-|
45
口④④口 |--①-|
口③③口 |--②-|
①口口① |--③-|
②口口② |--④-|
46
口口口口 |----|
口③③口 |①---|
口①②口 |②---|
口口口口 |--③-|
47
③口口③ |----|
口口口口 |①---|
口口口口 |②---|
口①②口 |--③-|
48
口口口口 |----|
③口口③ |①---|
口①②口 |②---|
口口口口 |--③-|
49
口③③口 |----|
口口口口 |①---|
口口口口 |②---|
口①②口 |--③-|
50
口口口口 |----|
口③③口 |①---|
口①②口 |②---|
口口口口 |--③-|
51
③口口③ |----|
口口口口 |①---|
口口口口 |②---|
口①②口 |--③-|
52
口口口口 |----|
③口口③ |①---|
③①②③ |②---|
口口口口 |--③-|
53
口①①口 |----|
口①①口 |----|
口口口口 |----|
口口口口 |--①-|
54
口口口口 |----|
口②口口 |----|
口①口口 |--①-|
口口口口 |--②-|
55
③口口口 |--①-|
④口口口 |--②-|
口口②口 |--③-|
口口①口 |--④-|
56
口口口④ |--①-|
口口口口 |--②-|
①②口口 |--③-|
口③口口 |--④-|
57
口口口口 |----|
口③口口 |①---|
口口①口 |②---|
口口②口 |--③-|
58
口口口口 |--①-|
口④口口 |--②-|
②③口口 |--③-|
口①口口 |--④-|
59
③口口口 |--①-|
④口口口 |--②-|
口口②口 |--③-|
口口①口 |--④-|
60
口口口④ |--①-|
口口口口 |--②-|
①②口口 |--③-|
口③口口 |--④-|
61
口③口口 |----|
口口口口 |①---|
口口①口 |②---|
口口②口 |--③-|
62
口口口口 |----|
口口②口 |----|
口口①口 |--①-|
口口口口 |--②-|
63
口口口③ |--①-|
口口口④ |--②-|
口②口口 |--③-|
口①口口 |--④-|
64
④口口口 |--①-|
口口口口 |--②-|
口口②① |--③-|
口口③口 |--④-|
65
口口口口 |----|
口口③口 |①---|
口①口口 |②---|
口②口口 |--③-|
66
口口口口 |--①-|
口口④口 |--②-|
口口③② |--③-|
口口①口 |--④-|
67
口口口③ |--①-|
口口口④ |--②-|
口②口口 |--③-|
口①口口 |--④-|
68
④口口口 |--①-|
口口口口 |--②-|
口口②① |--③-|
口口③口 |--④-|
69
口③③口 |----|
口口口口 |①---|
口①口口 |②---|
口②口口 |--③-|
70
口口口口 |----|
口口口口 |①---|
口②①口 |②---|
③口口③ |--③-|
71
口口口口 |----|
口②①口 |①---|
口口口口 |②---|
③口口③ |--③-|
72
口②①口 |----|
③口口③ |①---|
口口口口 |②---|
口口口口 |--③-|
73
口④④口 |--①-|
口口口口 |--②-|
①③③① |--③-|
②口口② |--④-|


不确定度: 0

最終更新:2012年11月10日 15:20