がんばれゴエモン ~ビーストメドレー~
96

EXTREME

Level: 9
BPM: 113-190
Notes: 526

BPM: 151
1
口口口口 |----|
口口口口 |----|
口口口口 |----|
口口口口 |----|
2
口口口口 |①---|
②①①② |----|
②①①② |②---|
口口口口 |----|
3
①②③④ |--①-|
口⑤口口 |②-③-|
口口⑥口 |④-⑤⑥|
口⑦口口 |⑦---|
4
口④口口 |--①-|
③⑥口口 |②-③-|
②⑤口口 |④-⑤-|
①⑦口口 |⑥-⑦-|
5
⑧口⑦⑥ |--①-|
口口⑨③ |②-③-|
口口⑤② |④⑤⑥⑦|
口口④① |⑧-⑨-|
6
口④口口 |--①-|
①⑥口口 |②-③-|
②⑤口口 |④-⑤-|
③⑦口口 |⑥-⑦-|
7
⑧口⑦⑥ |--①-|
口口⑨① |②-③-|
口口⑤② |④⑤⑥⑦|
口口④③ |⑧-⑨-|
8
⑥②口⑥ |①-②③|
口口口③ |④-⑤-|
①④口① |⑥---|
口⑤⑤口 |----|
9
⑦口口口 |--①-|
⑤口口⑥ |②-③-|
③口口④ |④-⑤-|
①口口② |⑥-⑦-|
10
口①口① |①---②-|
口口口口 |③-④-⑤-|
③④⑤⑥ |⑥---|
②口②口 |----|
11
口④口口 |--①-|
③⑥口口 |②-③-|
②⑤口口 |④-⑤-|
①⑦口口 |⑥-⑦-|
12
⑧口⑦⑥ |--①-|
口口⑨③ |②-③-|
口口⑤② |④⑤⑥⑦|
口口④① |⑧-⑨-|
13
口④口口 |--①-|
①⑥口口 |②-③-|
②⑤口口 |④-⑤-|
③⑦口口 |⑥-⑦-|
14
⑧口⑦⑥ |--①-|
口口⑨① |②-③-|
口口⑤② |④⑤⑥⑦|
口口④③ |⑧-⑨-|
15
⑥②口⑥ |①-②③|
口口口③ |④-⑤-|
①④口① |⑥---|
口⑤⑤口 |----|
16
⑦口口口 |--①-|
⑤口口⑥ |②-③-|
③口口④ |④-⑤-|
①口口② |⑥-⑦-|
17
口①口① |①---②-|
口口口口 |③-④-⑤-|
③④⑤⑥ |⑥---|
②口②口 |----|
18
⑦口口口 |--①-|
口⑥③口 |②-③-|
口②⑤口 |④-⑤-|
①口口④ |⑥-⑦-|
19
口②③④ |①-②③|
⑩口口⑧ |④-⑤⑥|
①⑤⑥口 |⑦-⑧-|
⑨口口⑦ |⑨-⑩-|
20
①③口② |①---|
口口⑥口 |②---|
口⑤口① |③-④⑤|
④②口③ |⑥---|
21
⑥⑨口⑥ |①-②③|
④③⑧④ |④-⑤-|
②口口⑦ |⑥-⑦⑧|
⑤①①⑤ |⑨---|
22
⑦口口口 |--①-|
口⑥③口 |②-③-|
口②⑤口 |④-⑤-|
①口口④ |⑥-⑦-|
23
口②③④ |①-②③|
⑩口口⑧ |④-⑤⑥|
①⑤⑥口 |⑦-⑧-|
⑨口口⑦ |⑨-⑩-|
24
⑫①②③ |-①②③|
口口口口 |④⑤⑥⑦|
④⑤⑥⑦ |⑧⑨⑩⑪|
⑧⑨⑩⑪ |⑫---|

BPM: 113
25
口口③口 |①-②-|
口口口① |③-④-|
②口口口
口④口口

⑦口口口
⑤口口⑧
口口⑥口 |⑤-⑥-|
口口口口 |⑦-⑧-|
26
口⑤口④ |①-②-|
口①⑧⑥ |③-④-|
③口口口 |⑤-⑥-|
口⑦口② |⑦-⑧-|
27
③③口口 |①-②-|
①口④② |③-④-|
①口②口
口口口④

口⑦口⑥
口口⑧口
⑦⑤⑧⑥ |⑤-⑥-|
口⑤口口 |⑦-⑧-|
28
口③口④ |①-②-|
①③口口 |③-④-|
口口口④
口①②②

口口⑥口
⑦⑦⑧口
口口⑥口 |⑤-⑥-|
⑤⑤⑧口 |⑦-⑧-|
29
①口口口 |①-②-|
③③口② |③-④-|
口①④②
口口④口

口⑦⑥⑥
口口口⑧
⑦⑤口口 |⑤-⑥-|
⑤口口⑧ |⑦-⑧-|
30
③③口④ |①-②-|
①口②口 |③-④-|
口口④②
①口口口

⑦⑦口⑧
口口⑧口
⑤⑤口⑥ |⑤-⑥-|
口口口⑥ |⑦-⑧-|
31
口口⑥口 |①②③④|
⑤③⑧② |⑤⑥⑦⑧|
①⑦口口
口口④口

⑨口口⑫
⑬⑮口⑯
口口⑭⑩ |⑨⑩⑪⑫|
⑪口口口 |⑬⑭⑮⑯|
32
口③口⑥ |①②③④|
⑦口②口 |⑤⑥⑦⑧|
⑤①口口
口口⑧④

⑮口⑭口
口⑪口⑩
口⑨⑯⑫ |⑨⑩⑪⑫|
⑬口口口 |⑬⑭⑮⑯|
33
口③口口 |①②③④|
⑦口②⑥ |⑤⑥⑦⑧|
①⑤口⑧
口口口④

⑮口⑩口
口⑪口⑭
口口⑫口 |⑨⑩⑪⑫|
⑬⑨⑯口 |⑬⑭⑮⑯|
34
口⑤②⑧ |①②③④|
⑨⑨⑨⑨ |⑤⑥⑦⑧|
①③⑥④ |⑨---|
⑦口口口 |----|

BPM: 190
35
①②口口 |①-②-|
口口④③ |③-④-|
⑤⑥口口 |⑤-⑥-|
口口⑧⑦ |⑦-⑧-|
36
①②口口 |①-②-|
口口④③ |③-④-|
⑤⑥口口 |⑤-⑥-|
口口⑧⑦ |⑦-⑧-|
37
①②口口 |①-②-|
口口④③ |③-④-|
⑤⑥口口 |⑤-⑥-|
口口⑧⑦ |⑦-⑧-|
38
①②口口 |①-②-|
口口④③ |③-④-|
⑤⑥⑦⑧ |⑤-⑥-|
口口口口 |⑦-⑧-|
39
①②口口 |①-②-|
口口④③ |③-④-|
⑤⑥口口 |⑤-⑥-|
口口⑧⑦ |⑦-⑧-|
40
①②口口 |①-②-|
口口④③ |③-④-|
⑤⑥口口 |⑤-⑥-|
口口⑧⑦ |⑦-⑧-|
41
①②口口 |①-②-|
口口④③ |③-④-|
⑤⑥口口 |⑤-⑥-|
口口⑧⑦ |⑦-⑧-|
42
①②⑧口 |①-②-|
⑥口④③ |③-④-|
口口⑦口 |⑤⑥⑦⑧|
⑤口⑩⑨ |⑨-⑩-|
43
①⑤⑤② |①-②-|
口③③口 |③---|
口④⑥口 |④-⑤-|
口④⑥口 |⑥---|
44
口⑤口口 |①-②-|
④⑦口口 |③-④-|
③⑥口口 |⑤-⑥-|
②⑧口① |⑦-⑧-|
45
⑦⑤③① |①-②-|
口口口口 |③-④-|
⑧⑥④② |⑤-⑥-|
口口口口 |⑦-⑧-|
46
口口口口 |①-②-|
口③④⑤ |③-④-|
口口口口 |⑤---|
口①②口 |----|
47
口④口口 |--①-|
③⑥口口 |②-③-|
②⑤口口 |④-⑤-|
①⑦口口 |⑥-⑦-|
48
⑧口⑦⑥ |--①-|
口口⑨③ |②-③-|
口口⑤② |④⑤⑥⑦|
口口④① |⑧-⑨-|
49
口④口口 |--①-|
①⑥口口 |②-③-|
②⑤口口 |④-⑤-|
③⑦口口 |⑥-⑦-|
50
⑧口⑦⑥ |--①-|
口口⑨① |②-③-|
口口⑤② |④⑤⑥⑦|
口口④③ |⑧-⑨-|
51
口④口口 |--①-|
③⑥口口 |②-③-|
②⑤口口 |④-⑤-|
①⑦口口 |⑥-⑦-|
52
⑧口⑦⑥ |--①-|
口口⑨③ |②-③-|
口口⑤② |④⑤⑥⑦|
口口④① |⑧-⑨-|
53
口④口口 |--①-|
①⑥口口 |②-③-|
②⑤口口 |④-⑤-|
③⑦口口 |⑥-⑦-|
54
⑧口⑦⑥ |--①-|
口口⑨① |②-③-|
口口⑤② |④⑤⑥⑦|
口口④③ |⑧-⑨-|
55
⑦口口口 |--①-|
⑤口口⑥ |②-③-|
③口口④ |④-⑤-|
①口口② |⑥-⑦-|
56
口①口① |①---②-|
口口口口 |③-④-⑤-|
③④⑤⑥ |⑥---|
②口②口 |----|
57
⑦口口口 |--①-|
⑤口口⑥ |②-③-|
③口口④ |④-⑤-|
①口口② |⑥-⑦-|
58
口①口① |①---②-|
口口口口 |③-④-⑤-|
③④⑤⑥ |⑥---|
②口②口 |----|

不確定度: 0

最終更新:2017年08月15日 01:14