スペースカーニバル
shooting star

ADVANCED

Level: 7
BPM: 160
Notes: 471

1
口口口口 |----|
口口口口 |----|
口口口口 |----|
口口口口 |----|
2
口口口口 |①-②-|
口口口口 |③-④-|
③⑤④⑥ |⑤-⑥-|
①⑦②⑧ |⑦-⑧-|
3
口口口口 |①-②-|
③⑤④⑥ |③-④-|
①⑦②⑧ |⑤-⑥-|
口口口口 |⑦-⑧-|
4
③⑤④⑥ |①-②-|
①⑦②⑧ |③-④-|
口口口口 |⑤-⑥-|
口口口口 |⑦-⑧-|
5
口口口口 |①-②-|
⑤⑦⑥⑧ |③-④-|
③①④② |⑤-⑥-|
口口口口 |⑦-⑧-|
6
口口口口 |①-②-|
口口口口 |③-④-|
⑥④⑤③ |⑤-⑥-|
⑧②⑦① |⑦-⑧-|
7
口口口口 |①-②-|
⑥④⑤③ |③-④-|
⑧②⑦① |⑤-⑥-|
口口口口 |⑦-⑧-|
8
⑥④⑤③ |①-②-|
⑦②口① |③-④-|
口口口口 |⑤-⑥-|
⑧口口⑧ |⑦-⑧-|
9
口⑤⑥口 |--①-|
口③④口 |②-③-|
口①②口 |④-⑤-|
⑦口口⑦ |⑥-⑦-|
10
⑤口口⑥ |--①-|
口③④口 |②-③-|
口①②口 |④-⑤-|
⑦口口⑦ |⑥-⑦-|
11
⑤⑦⑦⑥ |--①-|
③口口④ |②-③-|
口①②口 |④-⑤-|
口口口口 |⑥-⑦-|
12
口口口口 |--①-|
口①①口 |--②-|
口②②口 |----|
③口口口 |--③-|
13
⑥④⑤口 |--①-|
口口③口 |②-③-|
口②口口 |④-⑤-|
口口口① |--⑥-|
14
口口口④ |----|
口口口① |①---|
口②口口 |②-③-|
口③口口 |--④-|
15
口④口口 |--①-|
②口⑤口 |②-③-|
口③口口 |④-⑤-|
①口口⑥ |--⑥-|
16
口②口口 |--①-|
④口口口 |②-③-|
口①⑤口 |④-⑤-|
③⑥口口 |--⑥-|
17
⑥④⑤口 |--①-|
口口③口 |②-③-|
口②口口 |④-⑤-|
口口口① |--⑥-|
18
口⑥⑥① |--①-|
口③⑤② |②-③-|
口口口口 |④-⑤-|
口口④口 |--⑥-|
19
口口口口 |--①-|
⑤口③口 |②-③-|
①②④口 |④-⑤-|
口⑥⑥口 |--⑥-|
20
②④④② |--①-|
③⑤⑤③ |②-③-|
①口口① |④-⑤-|
口口口口 |----|
21
①口口② |----|
②口口① |①---|
口口口口 |②---|
口③③口 |③---|
22
口①①口 |①---|
③口④② |②---|
②口口③ |③---|
口④口口 |④---|
23
口口⑧⑦ |①-②-|
口口⑥⑤ |③-④-|
口口④③ |⑤-⑥-|
口口②① |⑦-⑧-|
24
⑦⑧口口 |①-②-|
⑤⑥口口 |③-④-|
③④口口 |⑤-⑥-|
①②口口 |⑦-⑧-|
25
②口口① |----|
①口口② |①---|
口口口口 |②---|
口③③口 |③---|
26
口①①口 |①---|
③口口② |②---|
②口口③ |③---|
口④④口 |④---|
27
口①①口 |①---|
口口口口 |----|
口口口口 |----|
口口口口 |----|
28
①口口① |①---|
口①①口 |②-③-|
③口口③
②口口②

口⑥口口
口⑤口口
口④口口 |--④-|
口口口口 |⑤-⑥-|
29
口⑥口口 |--①-|
口口③口 |②-③-|
⑤口②口 |--④-|
④口①口 |⑤-⑥-|
30
④口口④ |--①-|
口口②口 |--②-|
口①口口 |--③-|
口口③口 |--④-|
31
口⑦口口 |--①-|
口①②③ |②-③-|
口⑥⑤④ |④-⑤-|
口口口口 |⑥-⑦-|
32
口⑤口口 |--①-|
口④②口 |--②-|
口③口③ |--③-|
口①口口 |④-⑤-|
33
口⑥口口 |--①-|
口口③口 |②-③-|
⑤口②口 |--④-|
④口①口 |⑤-⑥-|
34
④口口④ |--①-|
口口②口 |--②-|
口①口口 |--③-|
口口③口 |--④-|
35
口⑦口口 |--①-|
口①②③ |②-③-|
口⑥⑤④ |④-⑤-|
口口口口 |⑥-⑦-|
36
口口③口 |----|
口口②口 |----|
口口①口 |--①-|
口口口口 |②-③-|
37
口口⑥口 |--①-|
口③口口 |②-③-|
口②口⑤ |--④-|
口①口④ |⑤-⑥-|
38
④口口④ |--①-|
口②口口 |--②-|
口口①口 |--③-|
口③口口 |--④-|
39
口口⑦口 |--①-|
③②①口 |②-③-|
④⑤⑥口 |④-⑤-|
口口口口 |⑥-⑦-|
40
口口⑤口 |--①-|
口②④口 |--②-|
③口③口 |--③-|
口口①口 |④-⑤-|
41
口口⑥口 |--①-|
口③口口 |②-③-|
口②口⑤ |--④-|
口①口④ |⑤-⑥-|
42
④口口④ |--①-|
口②口口 |--②-|
口口①口 |--③-|
口③口口 |--④-|
43
口⑦⑦口 |--①-|
③②①口 |②-③-|
④⑤⑥口 |④-⑤-|
口口口口 |⑥-⑦-|
44
口口口口 |----|
口①①口 |----|
口口口口 |----|
口口口口 |--①-|
45
④口口③ |--①-|
口口口口 |--②-|
③①①④ |--③-|
口②②口 |--④-|
46
口口口口 |----|
口③③口 |①---|
口①②口 |②---|
口口口口 |--③-|
47
③口口③ |----|
口口口口 |①---|
口口口口 |②---|
口①②口 |--③-|
48
口口口口 |----|
③口口③ |①---|
口①②口 |②---|
口口口口 |--③-|
49
③口口③ |----|
③口口③ |①---|
口口口口 |②---|
口①②口 |--③-|
50
口口口口 |----|
③口口③ |①---|
③①②③ |②---|
口口口口 |--③-|
51
③③③③ |----|
口口口口 |①---|
口口口口 |②---|
口①②口 |--③-|
52
口口口口 |----|
③口口③ |①---|
③①②③ |②---|
口口口口 |--③-|
53
口①①口 |----|
口①①口 |----|
口口口口 |----|
口口口口 |--①-|
54
口③口口 |----|
口②口口 |----|
口①口口 |--①-|
口口口口 |②-③-|
55
口⑥口口 |--①-|
口口③口 |②-③-|
⑤口②口 |--④-|
④口①口 |⑤-⑥-|
56
④口口④ |--①-|
口口②口 |--②-|
口①口口 |--③-|
口口③口 |--④-|
57
口⑦口口 |--①-|
口①②③ |②-③-|
口⑥⑤④ |④-⑤-|
口口口口 |⑥-⑦-|
58
口⑤口口 |--①-|
口④②口 |--②-|
口③口③ |--③-|
口①口口 |④-⑤-|
59
口⑥口口 |--①-|
口口③口 |②-③-|
⑤口②口 |--④-|
④口①口 |⑤-⑥-|
60
④口口④ |--①-|
口口②口 |--②-|
口①口口 |--③-|
口口③口 |--④-|
61
口⑦口口 |--①-|
口①②③ |②-③-|
口⑥⑤④ |④-⑤-|
口口口口 |⑥-⑦-|
62
口口③③ |----|
口口②② |----|
口口①① |--①-|
口口口口 |②-③-|
63
口⑥⑥口 |--①-|
口③口口 |②-③-|
⑤②口⑤ |--④-|
④①口④ |⑤-⑥-|
64
④口口④ |--①-|
口②口口 |--②-|
口①①口 |--③-|
口③口口 |--④-|
65
口口⑦口 |--①-|
③②①口 |②-③-|
④⑤⑥口 |④-⑤-|
口口口口 |⑥-⑦-|
66
口口⑤⑤ |--①-|
口②④④ |--②-|
③口③口 |--③-|
口口①口 |④-⑤-|
67
口⑥⑥口 |--①-|
口③口口 |②-③-|
⑤②口⑤ |--④-|
④①口④ |⑤-⑥-|
68
④口口④ |--①-|
口②口口 |--②-|
口①①口 |--③-|
口③口口 |--④-|
69
口⑦⑦口 |--①-|
③②①口 |②-③-|
④⑤⑥口 |④-⑤-|
口口口口 |⑥-⑦-|
70
口口口口 |--①-|
口口口口 |②-③-|
⑤③④⑥ |④-⑤-|
⑦①②⑦ |⑥-⑦-|
71
口口口口 |--①-|
⑤③④⑥ |②-③-|
口①②口 |④-⑤-|
⑦口口⑦ |⑥-⑦-|
72
⑦⑤⑥⑦ |--①-|
口③④口 |②-③-|
口①②口 |④-⑤-|
口口口口 |⑥-⑦-|
73
口⑤⑤口 |--①-|
①口口① |--②-|
②④④② |--③-|
口③③口 |④-⑤-|


不确定度: 0

最終更新:2012年11月10日 15:20