POLICY BREAK Medley from SOUND VOLTEX×jubeat
United Composers from jubeat

BASIC

Level: 5
BPM: 93-311
Notes: 402

BPM: 181
1
口口口口 |----|
口口口口 |----|
口口口口 |----|
口口口口 |----|
2
口口口口 |----|
口②口口 |①---|
口①②口 |----|
口口口口 |②---|
3
口口口口 |----|
①口口② |----|
①口口② |①---|
口口口口 |②---|
4
口口口口 |①---|
③①②口 |②---|
③口口口 |③---|
口口口口 |----|
5
口口口口 |①---|
口口口① |----|
口②②① |②---|
口口口口 |----|
6
口口口口 |①---|
③①②口 |②---|
③口口口 |③---|
口口口口 |----|
7
口②②口 |①---|
口口口口 |----|
口口口口 |②---|
口①①口 |----|
8
口口口口 |①---|
③①②口 |②---|
③口口口 |③---|
口口口口 |----|
9
口口口口 |①---|
口口口① |----|
口口口① |②---|
口②②口 |----|
10
口口口口 |①---|
③①②口 |②---|
③口口口 |③---|
口口口口 |----|
11
口②②口 |①---|
口口口口 |----|
口口口口 |②---|
口①①口 |----|
12
口口口口 |----|
口口口口 |----|
口口口口 |----|
口口口口 |----|
13
口口口口 |①---|
②口口④ |②---|
①口口③ |③---|
口口口口 |④---|
14
④口口④ |①---|
口口口口 |②---|
口①②口 |③---|
③口口③ |④---|
15
口口口口 |①---|
②口口④ |②---|
①口口③ |③---|
口口口口 |④---|
16
③口口③ |①---|
口口口口 |②---|
口①②口 |③---|
④口口④ |④---|

BPM: 178
17
口口口口 |①---|
②口口④ |②---|
①口口③ |③---|
口口口口 |④---|

BPM: 175
18
④口口④ |①---|
口口口口 |②---|
口①②口 |③---|
③口口③ |④---|

BPM: 172
19
口口口口 |①---|
②口口④ |②---|
①口口③ |③---|
口口口口 |④---|

BPM: 168
20
①口口② |①---|
①口口② |----|
口口口口 |②---|
口口口口 |----|

BPM: 164
21
口①①口 |①---|
口②③口 |②---|
口④口口 |③---|
口口口口 |④---|
22
口口口口 |①---|
口口口口 |②---|
口④①口 |③---|
口②③口 |④---|
23
口口口口 |①---|
口①①口 |----|
口②②口 |②---|
口口口口 |----|
24
口口口口 |①---|
口口口口 |②---|
口口口口 |③---|
①②③④ |④---|
25
口口口口 |①---|
口①口口 |----|
口①口口 |----|
口口口口 |----|
26
口口口口 |①---|
口口①口 |----|
口口①口 |----|
口口口口 |----|
27
口①①口 |①---|
口口口口 |----|
口口口口 |----|
口口口口 |----|
28
口口口口 |①---|
口口口口 |②---|
口③④口 |③---|
①口口② |④---|
29
①口口① |①---|
口②口口 |②---|
口口③口 |③---|
口口口④ |④---|
30
口①①口 |①---|
口②②口 |②---|
口③③口 |③---|
口④④口 |④---|
31
②口口④ |①---|
口口口口 |②---|
①口口③ |③---|
口口口口 |④---|
32
口口口口 |①---|
①④④口 |②---|
口③③口 |③---|
口②②口 |④---|

BPM: 175
33
①口口① |①---|
口口口口 |----|
口口口口 |----|
口口口口 |----|

BPM: 185
34
口口口口 |①---|
①口口① |----|
口口口口 |----|
口口口口 |----|

BPM: 190
35
口口口口 |①---|
口口口口 |----|
①②②① |②---|
口口口口 |----|

BPM: 195
36
④口口④ |①---|
③口口③ |②---|
②口口② |③---|
口①①口 |④---|

BPM: 200
37
口口口口 |①---|
口②口口 |②---|
③口口口 |③---|
①④口口 |④---|
38
口口口口 |①---|
口口②口 |②---|
口口口③ |③---|
口口④① |④---|
39
口②口口 |①---|
③口口口 |②---|
①④口口 |③---|
口口口口 |④---|
40
口口②口 |①---|
口口口③ |②---|
口口④① |③---|
口口口口 |④---|
41
口口口口 |①---|
口②口口 |②---|
③口口口 |③---|
①④口口 |④---|
42
口口口口 |①---|
口口②口 |②---|
口口口③ |③---|
口口④① |④---|
43
口口口口 |①---|
口③④口 |②---|
口①②口 |③---|
口口口口 |④---|
44
①口口② |①---|
口口口口 |②---|
口口口口 |③---|
③口口口 |----|
45
口口①口 |①---|
口口口③ |②---|
口口②口 |③---|
口口口④ |④---|
46
口①口口 |①---|
③口口口 |②---|
口②口口 |③---|
④口口口 |④---|
47
口口口④ |①---|
口口①口 |②---|
口口口③ |③---|
口口②口 |④---|
48
④口口口 |①---|
口①口口 |②---|
③口口口 |③---|
口②口口 |④---|
49
口口③口 |①---|
口口口① |②---|
口口④口 |③---|
口口口② |④---|
50
口③口口 |①---|
①口口口 |②---|
口④口口 |③---|
②口口口 |④---|
51
口口口口 |①---|
口口口口 |②---|
④④③③ |③---|
②②①① |④---|
52
④④③③ |①---|
②②①① |②---|
口口口口 |③---|
口口口口 |④---|
53
口口口口 |①---|
口口口口 |----|
口③②口 |②---|
口①①口 |③---|
54
①②口口 |--①-|
口口口口 |--②-|
口③③口 |----|
口口口口 |③---|
55
口口口口 |①---|
④③②① |②---|
口口口口 |③---|
口口口口 |④---|
56
①②③④ |①---|
口口口口 |②---|
口口口口 |③---|
口口口口 |④---|
57
口口口口 |①---|
口口口口 |----|
口②③口 |②---|
口①①口 |③---|
58
口口②① |--①-|
口口口口 |--②-|
口③③口 |----|
口口口口 |③---|
59
口口口口 |①---|
①②③④ |②---|
口口口口 |③---|
口口口口 |④---|
60
口口口口 |①---|
口口口口 |②---|
④③②① |③---|
口口口口 |④---|
61
口口①口 |①---|
口②口口 |--②-|
口口③口 |----|
口口口口 |③---|
62
口①口口 |①---|
口口②口 |--②-|
口③口口 |----|
口口口口 |③---|
63
口口①口 |①---|
口②口口 |--②-|
口口③口 |----|
口口口口 |③---|
64
口口口口 |①---|
口③③口 |--②-|
②口口② |----|
口①①口 |③---|
65
口口口① |①---|
口口口② |②---|
口口口③ |③---|
口口口④ |④---|
66
④口口口 |①---|
③口口口 |②---|
②口口口 |③---|
①口口口 |④---|
67
口①①口 |①---|
口②②口 |②---|
口③③口 |③---|
口④④口 |④---|
68
口口口口 |①---|
口口口口 |----|
①口口① |----|
口口口口 |----|

BPM: 165
69
①口口口 |①---|
口口口口 |----|
口口口口
口口口口

BPM: 160
口口口②
口口口口
口口口口 |②---|
口口口口 |----|

BPM: 147
70
口口口口 |①---|
口口口口 |----|
口口口口
①口口口

BPM: 123
口口口口
口口口口
口口口口 |②---|
口口口② |----|

BPM: 93
71
口口口口 |①---|
②①①③ |②-③-|
④①①⑤ |④-⑤-|
⑥口口⑦ |⑥-⑦-|
72
①①口② |①-②-|
口口口口
口口口口
口口口口

BPM: 120
口口口口
③口口④ |③-④-|
⑤口口⑥ |⑤-⑥-|
⑦口口⑧ |⑦-⑧-|

BPM: 140
73
口口口口 |①---|
②①①③ |②-③-|
④①①⑤ |④-⑤-|
⑥口口⑦ |⑥-⑦-|

BPM: 155
74
①①口② |①-②-|
③口口④ |③-④-|
口口口口
口口口口

BPM: 169
口口口口
口口口口
⑤口口⑥ |⑤-⑥-|
⑦口口⑧ |⑦-⑧-|

BPM: 200
75
口①①口 |①---|
口②②口 |----|
口口口口 |②---|
口口口口 |----|

BPM: 220
76
口口口口 |①---|
口口口口 |----|
口①①口 |②---|
口②②口 |----|

BPM: 260
77
口①①口 |①---|
口②②口 |----|
口口口口 |②---|
口口口口 |----|

BPM: 282
78
口口口口 |①---|
口口口口 |----|
口①①口 |②---|
口②②口 |----|

BPM: 311
79
口口口口 |①---|
①口口① |----|
①口口① |----|
口口口口 |----|
80
口口口口 |----|
口口口口 |----|
口口口口 |----|
口口口口 |----|
81
口口口口 |----|
口口口口 |----|
口口口口 |----|
口口口口 |----|
82
口口口口 |----|
口口口口 |----|
口口口口 |----|
口口口口 |----|

BPM: 280
83
口口口口 |----|
口口口口 |----|
口口口口 |----|
口口口口 |----|
84
③②①口 |①---|
③口口口 |--②-|
口口口口 |----|
口口口口 |③---|

口口口口 |----|
口口口口 |----|
口口口口 |----|
口口口口 |----|
85
口口口口 |①---|
口口口口 |--②-|
口口口口 |----|
①②③口 |③---|

口口口口 |--④-|
口口口口 |----|
口口口④ |----|
口口口④ |----|
86
口口口口 |①---|
③口口口 |--②-|
③②①口 |----|
口口口口 |③---|

口口口口 |----|
口口口口 |----|
口口口口 |----|
口口口口 |----|
87
①②③口 |①---|
口口口口 |--②-|
口口口口 |----|
口口口口 |③---|

口口口④ |--④-|
口口口④ |----|
口口口口 |----|
口口口口 |----|
88
口口口口 |----|
口口口口 |----|
口口口口 |----|
口口口口
89
口口口口 |①---|
口口口口 |--②-|
口口②口 |----|
口口口①
90
口口口口 |①---|
口口口口 |--②-|
口②口口 |----|
①口口口
91
口口口口 |①---|
口口口口 |--②-|
口口口② |----|
口口①口
92
口口口口 |①---|
口口口口 |--②-|
②口口口 |----|
口①口口
93
口口②口 |①---|
口口口① |--②-|
口口口口 |----|
口口口口
94
口②口口 |①---|
①口口口 |--②-|
口口口口 |----|
口口口口
95
口口口① |①---|
口口②口 |--②-|
口口口口 |----|
口口口口
96
①口口口 |①---|
口②口口 |--②-|
口口口口 |----|
口口口口
97
口口口口 |①---|
口口口口 |--②-|
口口②口 |----|
口口口①
98
口口口口 |①---|
口口口口 |--②-|
口②口口 |----|
①口口口
99
口口口口 |①---|
口口口口 |--②-|
口口口② |----|
口口①口
100
口口口口 |①---|
口口口口 |--②-|
②口口口 |----|
口①口口
101
口口②口 |①---|
口口口① |--②-|
口口口口 |----|
口口口口
102
口②口口 |①---|
①口口口 |--②-|
口口口口 |----|
口口口口
103
口口口① |①---|
口口②口 |--②-|
口口口口 |----|
口口口口
104
①口口口 |①---|
口②口口 |--②-|
口口口口 |----|
口口口口
105
口口口口 |①---|
口口口口 |----|
口②②口 |--②-|
口①①口

口口口口 |----|
口口口口 |----|
口口口口
口口口口
106
②②②② |①---|
口①①口 |----|
口口口口 |--②-|
口口口口

口口口口 |----|
口口口口 |----|
口口口口
口口口口

不確定度: 0

最終更新:2017年08月13日 14:13