POLICY BREAK Medley from SOUND VOLTEX×jubeat
United Composers from jubeat

ADVANCED

Level: 9
BPM: 93-311
Notes: 706

BPM: 181
1
口口口口 |----|
口口口口 |----|
口口口口 |----|
口口口口 |----|
2
⑦⑦⑦⑦ |①-②-|
口③③口 |③---|
①口⑤② |④⑤⑥-|
④口口⑥ |⑦---|
3
⑦⑦⑦⑦ |①-②-|
口⑥⑥口 |③-④-|
①⑤⑤③ |⑤-⑥-|
口④②口 |⑦---|
4
口⑦⑧口 |①-②-|
②口口⑥ |③-④-|
①④口口 |⑤--⑥|
口③口⑤ |-⑦⑧-|
5
口口口口 |①--②|
口③④口 |-③④-|
口⑦⑧口 |⑤--⑥|
①⑥②⑤ |-⑦⑧-|
6
口⑦⑧口 |①-②-|
②口口④ |③-④-|
①口口③ |⑤--⑥|
⑥口口⑤ |-⑦⑧-|
7
②⑤⑤② |①---|
口口口口 |②---|
口①①口 |③-④-|
③口口④ |⑤---|
8
口⑦⑧口 |①-②-|
②口口⑥ |③-④-|
①④口口 |⑤--⑥|
口③口⑤ |-⑦⑧-|
9
③口口口 |①②-③|
口①②口 |-④⑤-|
口口口口
口④⑤口

口口口⑧
口⑨⑩口
口⑥⑦口 |⑥⑦-⑧|
口口口口 |-⑨⑩-|
10
口⑦⑧口 |①-②-|
②口口⑥ |③-④-|
①④口口 |⑤--⑥|
口③口⑤ |-⑦⑧-|
11
③口口口 |①②-③|
口①②口 |-④⑤-|
口口口口
口④⑤口

口口口⑧
口⑨⑩口
口⑥⑦口 |⑥⑦-⑧|
口口口口 |-⑨⑩-|
12
口③口口 |①---|
②口④② |②---|
口⑤口口 |--③-|
①口口① |④-⑤-|
13
口④③口 |①--②|
口口口⑤ |--③-|
②口口口 |④--⑤|
口⑥①口 |--⑥-|
14
口口③口 |①--②|
口④⑤口 |--③-|
②⑥⑦口 |④-⑤-|
口口①口 |⑥-⑦-|
15
口④③口 |①--②|
口口口⑤ |--③-|
②口口口 |④--⑤|
口⑥①口 |--⑥-|
16
口口③口 |①--②|
口⑤⑦口 |--③-|
②④⑥口 |④-⑤-|
口口①口 |⑥-⑦-|

BPM: 178
17
口④③口 |①--②|
口口口⑤ |--③-|
②口口口 |④--⑤|
口⑥①口 |--⑥-|

BPM: 175
18
口口③口 |①--②|
口④⑤口 |--③-|
②⑥⑦口 |④-⑤-|
口口①口 |⑥-⑦-|

BPM: 172
19
口④③口 |①--②|
口口口⑤ |--③-|
②口口口 |④--⑤|
口口①口 |----|

BPM: 168
20
口口口口 |①---|
口②②口 |----|
口口口口 |②---|
口①①口 |----|

BPM: 164
21
①口口① |①---|
口口口口 |----|
口①①口 |----|
口口口口 |----|
22
口口口口 |----|
口口口口 |----|
口口口口 |----|
口口口口 |----|
23
口口口口 |①②③④|
⑥⑦口口 |⑤-⑥⑦|
①②③④
⑤口口口

⑪⑩⑨⑧
口口口⑫
⑬口口口 |⑧⑨⑩⑪|
口口口口 |⑫-⑬-|
24
⑨⑩⑪⑫ |①-②-|
⑤⑥⑦⑧ |③-④-|
口④口③ |⑤⑥⑦⑧|
口②①口 |⑨⑩⑪⑫|
25
⑬⑫⑪⑩ |①---|
⑨⑧⑦⑥ |②③④⑤|
⑤④③② |⑥⑦⑧⑨|
①口口口 |⑩⑪⑫⑬|
26
口⑧⑨口 |①---|
口口口口 |②③④⑤|
⑥口⑦① |⑥-⑦-|
②③④⑤ |⑧-⑨-|
27
⑬⑭⑮⑯ |①②③④|
④③②① |⑤⑥⑦⑧|
⑫⑪⑩⑨ |⑨⑩⑪⑫|
⑧⑦⑥⑤ |⑬⑭⑮⑯|
28
⑯⑮⑭⑬ |①②③④|
①②③④ |⑤⑥⑦⑧|
⑫⑪⑩⑨ |⑨⑩⑪⑫|
⑤⑥⑦⑧ |⑬⑭⑮⑯|
29
口口口口 |①-②③|
口口口① |④-⑤⑥|
口口口④
②③⑥⑤

⑪⑫⑩⑨
⑦⑧⑭⑬
口口口口 |⑦⑧⑨⑩|
口口口口 |⑪⑫⑬⑭|
30
⑦⑪⑥⑤ |①-②③|
⑧⑨口口 |④-⑤⑥|
②③口④ |⑦-⑧⑨|
①口口⑩ |⑩-⑪-|
31
口口口口 |①②③④|
⑥⑦口⑤ |⑤-⑥⑦|
④③②①
口口口口

口口口口
口口口口
⑮⑭⑬⑫ |⑧⑨⑩⑪|
⑪⑩⑨⑧ |⑫⑬⑭⑮|
32
②③口① |①-②③|
口口④口 |④-⑤⑥|
口口口口
口口⑥⑤

口口⑫⑪
口⑦口口
口口口⑩ |⑦-⑧⑨|
⑧⑨口口 |⑩-⑪⑫|

BPM: 175
33
口口口口 |①---|
⑤④③② |②③④⑤|
①①口口
口口口口

口口口口
口口口口
⑬⑫⑪⑩ |⑥⑦⑧⑨|
⑨⑧⑦⑥ |⑩⑪⑫⑬|

BPM: 185
34
口口①① |①---|
②③④⑤ |②③④⑤|
⑩⑪⑫⑬ |⑥⑦⑧⑨|
⑥⑦⑧⑨ |⑩⑪⑫⑬|

BPM: 190
35
①①⑥⑥ |①---|
⑦口③② |②③④⑤|
口口口口 |⑥---|
④⑤口⑧ |⑦-⑧-|

BPM: 195
36
⑦⑧⑨口 |①-②-③-|
口⑥⑤④ |④-⑤-⑥-|
①②③口 |⑦-⑧-⑨-|
⑩⑪⑫口 |⑩-⑪-⑫-|

BPM: 200
37
口口口③ |①-②-|
①⑥⑧④ |③-④-|
口②口口 |⑤-⑥-|
⑦口口⑤ |⑦-⑧-|
38
①②⑥⑤ |①-②-|
口口口口 |③-④-|
⑧⑦③④ |⑤-⑥-|
口口口口 |⑦-⑧-|
39
口口口口 |①-②-|
①③⑤⑦ |③-④-|
口口口口 |⑤-⑥-|
②④⑥⑧ |⑦-⑧-|
40
⑧④②⑥ |①-②-|
口口口口 |③-④-|
口①③口 |⑤-⑥-|
⑤口口⑦ |⑦-⑧-|
41
口⑤⑥口 |①-②-|
④⑦⑧① |③-④-|
口口口口 |⑤-⑥-|
口③②口 |⑦-⑧-|
42
⑧口口⑤ |①-②-|
口口口口 |③-④-|
⑥②③⑦ |⑤-⑥-|
①口口④ |⑦-⑧-|
43
口①③口 |①-②-|
口②④口 |③-④-|
口⑤⑦口 |⑤-⑥-|
口⑥⑧口 |⑦-⑧-|
44
⑤口口⑦ |①-②-|
①口口③ |③-④-|
②口口④ |⑤-⑥-|
⑥口口⑧ |⑦-⑧-|
45
口②口口 |①-②-|
⑧④③⑦ |③-④-|
口①①口 |⑤-⑥-|
口⑥⑤口 |⑦-⑧-|
46
④③⑥⑤ |①-②-|
口口口口 |③-④-|
⑧⑦②① |⑤-⑥-|
口口口口 |⑦-⑧-|
47
口口口口 |①-②-|
①②⑦⑧ |③-④-|
口口口口 |⑤-⑥-|
⑤⑥③④ |⑦-⑧-|
48
②⑤⑥④ |①-②-|
口口口口 |③-④-|
口①③口 |⑤-⑥-|
口⑦⑧口 |⑦-⑧-|
49
①口口⑤ |①-②-|
口②⑥口 |③-④-|
口⑦③口 |⑤-⑥-|
⑧口口④ |⑦-⑧-|
50
口⑧⑥口 |①-②-|
①口口② |③-④-|
③口口④ |⑤-⑥-|
口⑤⑦口 |⑦-⑧-|
51
口口口口 |①-②-|
①②⑥⑤ |③-④-|
口⑦③口 |⑤-⑥-|
⑧口口④ |⑦-⑧-|
52
⑤口①⑤ |①-②-|
②口口口 |③---|
④口口④ |④---|
口口③口 |⑤---|
53
口口口口 |①---|
①①①① |----|
口⑤④口 |②-③-|
口③②口 |④-⑤-|
54
②口⑤① |--①-|
口④口口 |--②-|
口口③口 |--③-|
口口口口 |④-⑤-|
55
口口口口 |①-②-|
①⑥⑤口 |③---|
口④④② |④---|
③口口口 |⑤-⑥-|
56
⑤口口⑤ |①-②-|
口口口① |③---|
②④④口 |④---|
口口口③ |⑤---|
57
口⑤口口 |①---|
①口④① |----|
口③口口 |②-③-|
口口②口 |④-⑤-|
58
②口⑤① |--①-|
口④口口 |--②-|
口口③口 |--③-|
口口口口 |④-⑤-|
59
口口口口 |①-②-|
①⑥⑤口 |③---|
口④④② |④---|
③口口口 |⑤-⑥-|
60
口口口口 |①---|
②⑥⑤② |②---|
口④③口 |③-④-|
口①①口 |⑤-⑥-|
61
①口口① |①---|
口口口口 |--②-|
②口口口 |----|
口口口③ |③---|
62
口口口口 |①---|
口③口口 |--②-|
口口②口 |----|
口①口口 |③---|
63
口①①口 |①---|
口口②口 |--②-|
口③口口 |----|
口口口口 |③---|
64
④口口口 |①--②|
口⑤⑤③ |--③-|
②口口口 |-④--|
口口口① |⑤---|
65
口口口① |①---|
口口口② |②---|
口口口③ |③---|
口口口④ |④---|
66
④口口口 |①---|
③口口口 |②---|
②口口口 |③---|
①口口口 |④---|
67
口②①口 |①-②-|
口④③口 |③-④-|
口⑥⑤口 |⑤-⑥-|
口⑧⑦口 |⑦-⑧-|
68
口口口① |--①-|
②口口③ |--②-|
④口口口 |--③-|
口口口口 |--④-|

BPM: 165
69
口口口口 |①---|
口口口口 |----|
口口①①
口口口口

BPM: 160
口口口口
②②口口
口口口口 |②---|
口口口口 |----|

BPM: 147
70
口口①口 |①---|
口口①口 |----|
口口口口
口口口口

BPM: 123
口口口口
口口口口
口②口口 |②---|
口②口口 |----|

BPM: 93
71
口②③口 |①---|
口④⑤口 |②-③-|
①⑥⑦① |④-⑤-|
口口口口 |⑥-⑦-|
72
口口口口 |①-②-|
口口口口
口口口②
①口口口

BPM: 120
⑧口口⑥
⑤口口⑦ |③-④-|
④口口口 |⑤-⑥-|
口口口③ |⑦-⑧-|

BPM: 140
73
口②③口 |①---|
口④⑤口 |②-③-|
①⑥⑦① |④-⑤-|
口口口口 |⑥-⑦-|

BPM: 155
74
口口口口 |①-②-|
口口口口 |③-④-|
④口口②
①口口③

BPM: 169
⑧口口⑥
⑤口口⑦
口口口口 |⑤-⑥-|
口口口口 |⑦-⑧-|

BPM: 200
75
口口口口 |①---|
口口口口 |----|
口①①口 |----|
口口口口 |----|

BPM: 220
76
口口口口 |①---|
口①①口 |----|
口口口口 |----|
口口口口 |----|

BPM: 260
77
②①①② |①---|
口口口口 |----|
口口口口 |②---|
口口口口 |----|

BPM: 282
78
口口口口 |①---|
①口口① |----|
②口口② |②---|
口口口口 |----|

BPM: 311
79
口口口口 |①---|
口口口口 |----|
口口口口 |----|
①①①① |----|
80
口口口口 |----|
口口口口 |----|
口口口口 |----|
口口口口 |----|
81
口口口口 |----|
口口口口 |----|
口口口口 |----|
口口口口 |----|
82
口口口口 |----|
口口口口 |----|
口口口口 |----|
口口口口 |----|

BPM: 280
83
口口口口 |----|
口口口口 |----|
口口口口 |----|
口口口口 |----|
84
②①②口 |①---|
口③口口 |--②-|
①②①口 |----|
口口口口 |③---|

口口口口 |----|
口口口口 |----|
口口口口 |----|
口口口口 |----|
85
口口口口 |①---|
口③口口 |--②-|
口②口口 |----|
口①口口 |③---|

④口④口 |--④-|
口口口口 |----|
口口口口 |----|
口口口口 |----|
86
口口口口 |①---|
口①②① |--②-|
口口③口 |----|
口②①② |③---|

口口口口 |----|
口口口口 |----|
口口口口 |----|
口口口口 |----|
87
口口①口 |①---|
口口②口 |--②-|
口口③口 |----|
口口口口 |③---|

口口口口 |--④-|
口口口口 |----|
口口口口 |----|
口口④口 |----|
88
②口①口 |①---|
口口口口 |--②-|
口②口① |----|
口口口口
89
口口口口 |①---|
②②口口 |--②-|
口口口口 |----|
①①口口
90
口口口口 |①---|
口口②② |--②-|
口口口口 |----|
口口①①
91
口①口② |①---|
口口口口 |--②-|
①口②口 |----|
口口口口
92
②口①口 |①---|
口口口口 |--②-|
口②口① |----|
口口口口
93
口口口口 |①---|
②②口口 |--②-|
口口口口 |----|
①①口口
94
口口口口 |①---|
口口②② |--②-|
口口口口 |----|
口口①①
95
口①口② |①---|
口口口口 |--②-|
①口②口 |----|
口口口口
96
②口①口 |①---|
口口口口 |--②-|
口②口① |----|
口口口口
97
口口口口 |①---|
②②口口 |--②-|
口口口口 |----|
①①口口
98
口口口口 |①---|
口口②② |--②-|
口口口口 |----|
口口①①
99
口①口② |①---|
口口口口 |--②-|
①口②口 |----|
口口口口
100
②口①口 |①---|
口口口口 |--②-|
口②口① |----|
口口口口
101
口口口口 |①---|
②②口口 |--②-|
口口口口 |----|
①①口口
102
口口口口 |①---|
口口②② |--②-|
口口口口 |----|
口口①①
103
口①口② |①---|
口口口口 |--②-|
①口②口 |----|
口口口口
104
口口口口 |①---|
口①口② |--②-|
口口口口 |----|
①口②口
105
②口口② |①---|
口口口口 |----|
①口口① |--②-|
口口口口

口口口口 |----|
口口口口 |----|
口口口口
口口口口
106
口口口口 |①---|
②②②② |----|
口口口口 |--②-|
①口口①

口口口口 |----|
口口口口 |----|
口口口口
口口口口

不確定度: 0

最終更新:2017年08月13日 14:13