POLICY BREAK Medley from SOUND VOLTEX×jubeat
United Composers from jubeat

EXTREME

Level: 10
BPM: 93-311
Notes: 1074

BPM: 181
1
口口口口 |----|
口口口口 |----|
口口口口 |----|
口口口口 |----|
2
②③⑦⑦ |①-②-|
④③⑤⑦ |③---|
口③⑦⑥ |④⑤⑥-|
①③⑦⑦ |⑦---|
3
⑤⑥口⑪ |①②③④|
⑦⑧⑨口 |⑤⑥⑦⑧|
③④⑪⑩ |⑨-⑩-|
①②口口 |⑪---|
4
口口口口 |①-②-|
④口口④ |③-④-|
①②口口
口③③口

口⑧口口
口口口口
⑦口口⑥ |⑤--⑥|
口口口⑤ |-⑦⑧-|
5
口口④⑧ |①--②|
⑤口①② |-③④-|
口③⑦口 |⑤--⑥|
⑥口口口 |-⑦⑧-|
6
口口口口 |①-②-|
口口口④ |③-④-|
①②口口
口口③口

⑧口口口
口口⑥口
⑦口口⑤ |⑤--⑥|
口口口口 |-⑦⑧-|
7
⑤①②② |①---|
③①③② |②---|
口①②⑤ |③-④-|
④①②② |⑤---|
8
口口口口 |①-②-|
④口口④ |③-④-|
①②口口
口③③口

口⑧口口
口口口口
⑦口口⑥ |⑤--⑥|
口口口⑤ |-⑦⑧-|
9
口口⑤⑩ |①②-③|
⑥口①③ |-④⑤-|
口④⑨口 |⑥⑦-⑧|
⑧⑦②口 |-⑨⑩-|
10
口口⑦⑧ |①-②-|
口口口④ |③-④-|
①②⑥口 |⑤-⑥-|
⑨⑩③⑤ |⑦⑧⑨⑩|
11
⑤②⑦⑩ |①②-③|
③③⑧⑧ |-④⑤-|
①④⑨⑥ |⑥⑦-⑧|
口口口口 |-⑨⑩-|
12
③口口口 |①---|
⑥口口④ |②---|
口口⑤口 |③-④-|
①口口② |⑤-⑥-|
13
⑤①口口 |①-②③|
口④口口 |④-⑤-|
⑤①口③
②口口口

口⑨口口
⑦口⑧口
口⑨口口 |⑥--⑦|
口口⑧⑥ |⑧-⑨-|
14
④口③⑤ |①--②|
口口口② |--③-|
⑥口③⑦ |④-⑤-|
①口口口 |⑥-⑦-|
15
口①⑤口 |①-②③|
口④口③ |④-⑤-|
口①⑤口
口②口口

口⑨口口
⑧口⑦口
口⑨口口 |⑥-⑦⑧|
口口⑦⑥ |--⑨-|
16
⑤口③⑦ |①--②|
口口口② |--③-|
④口③⑥ |④-⑤-|
①口口口 |⑥-⑦-|

BPM: 178
17
口①⑤口 |①-②③|
口④口③ |④-⑤-|
口①⑤口
口②口口

口⑨口口
⑧口⑦口
口⑨口口 |⑥-⑦⑧|
口口⑦⑥ |--⑨-|

BPM: 175
18
④口③⑤ |①--②|
口口口② |--③-|
⑥口③⑦ |④-⑤-|
①口口口 |⑥-⑦-|

BPM: 172
19
口①④口 |①--②|
口③口② |③-④-|
口①④口
口③口口

⑥⑧口⑦
口口口口
口⑧口⑦ |⑤--⑥|
口口口⑤ |⑦-⑧-|

BPM: 168
20
⑦口④⑦ |①--②|
口③口② |③-④-|
①口④⑥ |⑤--⑥|
①⑤口口 |--⑦-|

BPM: 164
21
口①口口 |①②③④|
口⑦②⑥ |⑤-⑥⑦|
⑤③口口
口口口④

⑪⑬口⑭
⑮口口口
口口⑧⑫ |⑧⑨⑩⑪|
口⑨⑩口 |⑫⑬⑭⑮|
22
口口④口 |①②③④|
口⑤①⑦ |⑤⑥⑦⑧|
⑥②⑧口
③口口口

⑩口口⑪
⑫口⑬口
口⑭口⑮ |⑨⑩⑪⑫|
⑯⑨口口 |⑬⑭⑮⑯|
23
⑦②⑤⑥ |①②③④|
⑫⑧口③ |⑤-⑥⑦|
④口⑨⑬ |⑧⑨⑩⑪|
口⑩⑪① |⑫-⑬-|
24
③口口④ |①-②-|
口口口② |③-④-|
①口口口
口口口口

口口口口
口口口口
⑨⑤⑧⑩ |⑤⑥⑦⑧|
⑪⑦⑥⑫ |⑨⑩⑪⑫|
25
口②口口 |①---|
①①③口 |②③④⑤|
口④口口
口口⑤口

⑥口口⑬
⑫口口⑦
⑧口口⑪ |⑥⑦⑧⑨|
⑩口口⑨ |⑩⑪⑫⑬|
26
口①④口 |①---|
口①②口 |②③④⑤|
口③口口
口⑤口口

⑧口口⑨
口⑧口⑨
口口⑦口 |⑥-⑦-|
口口⑦⑥ |⑧-⑨-|
27
口口③口 |①②③④|
②口口口 |⑤⑥⑦⑧|
⑥⑧⑦①
口④口⑤

⑩⑯口⑮
⑭口⑨口
口口口⑬ |⑨⑩⑪⑫|
⑫口⑪口 |⑬⑭⑮⑯|
28
⑧口⑦口 |①②③④|
口⑥口④ |⑤⑥⑦⑧|
⑤口③口
口②口①

口⑫口口
⑭口⑨口
口⑩口⑬ |⑨⑩⑪⑫|
⑯口⑪⑮ |⑬⑭⑮⑯|
29
④口③① |①-②③|
口口口① |④-⑤⑥|
口⑤⑥口
口②口口

口⑨⑭口
口口口口
⑦口口⑧ |⑦⑧⑨⑩|
⑪⑬⑩⑫ |⑪⑫⑬⑭|
30
①口口① |①-②-|
③④③② |③-④-|
口口口口
口口口口

口⑧口⑧
口口口口
口⑤⑥⑤ |⑤-⑥-|
⑦口⑦口 |⑦-⑧-|
31
⑤口⑥口 |①②③④|
③口④口 |⑤-⑥⑦|
⑦口口口
口①口②

口⑪口⑫
⑭口⑮⑩
口⑨⑧⑬ |⑧⑨⑩⑪|
口口口口 |⑫⑬⑭⑮|
32
①口②口 |①-②③|
⑧③口⑧ |④-⑤-|
⑨⑥⑥⑦ |⑥-⑦-|
口⑤④④ |⑧-⑨-|

BPM: 175
33
②①①⑥ |①---|
⑩③⑦⑪ |②③④⑤|
⑫⑧④⑬ |⑥⑦⑧⑨|
⑨口口⑤ |⑩⑪⑫⑬|

BPM: 185
34
②①①⑥ |①---|
⑩③⑦⑪ |②③④⑤|
⑫⑧④⑬ |⑥⑦⑧⑨|
⑨口口⑤ |⑩⑪⑫⑬|

BPM: 190
35
口①①③ |①---|
⑤⑤口口 |②-③-|
口口③口 |④---|
口②④⑤ |⑤---|

BPM: 195
36
⑨③⑥口 |①-②-③-|
⑫口⑧⑤ |④-⑤-⑥-|
⑦⑩⑪② |⑦-⑧-⑨-|
①④口口 |⑩-⑪-⑫-|

BPM: 200
37
口⑦⑨③ |①-②-|
口⑩口④ |③④⑤-|
⑧口⑪⑤ |⑥-⑦-|
②⑥①① |⑧⑨⑩⑪|
38
⑥⑦口② |①-②③|
⑨口⑦③ |④⑤⑥-|
⑧⑩口④ |⑦-⑧-|
①口⑪⑤ |⑨⑩⑪-|
39
⑦⑧①⑨ |①-②-|
口④⑥② |③④⑤-|
⑦⑩⑤⑪ |⑥-⑦-|
③①口⑥ |⑧⑨⑩⑪|
40
⑦口⑥口 |①-②③|
②③⑧⑤ |④-⑤-|
口⑧④口 |⑥-⑦-|
⑦①⑥⑤ |⑧---|
41
⑦①⑤① |①---|
③⑨⑧② |②③④-|
口口⑩① |⑤-⑥-|
⑥⑤⑥④ |⑦⑧⑨⑩|
42
口⑦⑦② |①-②③|
⑥⑩口③ |④⑤⑥-|
①⑥口④ |⑦-⑧-|
⑨⑧⑪⑤ |⑨⑩⑪-|
43
①⑥⑧② |①-②-|
⑥⑨①⑦ |③④⑤-|
①⑤④③ |⑥-⑦-|
口⑪⑩⑦ |⑧⑨⑩⑪|
44
②口⑥① |①-②-|
口⑦①⑤ |③-④-|
②③④④ |⑤---|
③⑨⑧⑤ |⑥⑦⑧⑨|
45
②口口① |①-②-|
口口①口 |③④⑤-|
口③④⑤
口口口口

口⑥⑦⑪
⑧口口⑨
⑩口口口 |⑥-⑦-|
口口口口 |⑧⑨⑩⑪|
46
⑨⑦⑦口 |①-②③|
⑩①口口 |④⑤⑥-|
⑪⑥口⑧ |⑦-⑧-|
②③④⑤ |⑨⑩⑪-|
47
⑧⑦⑦③ |①-②-|
⑩①④⑨ |③④⑤-|
口⑤①⑥ |⑥-⑦-|
口②⑥⑪ |⑧⑨⑩⑪|
48
⑧⑧口⑤ |①-②③|
口③⑥⑨ |④-⑤-|
④⑦②⑤ |⑥-⑦-|
⑦①⑥口 |⑧-⑨-|
49
口口②口 |①-②-|
①③口口 |③④⑤-|
口口④口
口①口⑤

口⑦口⑧
口口⑨口
口口口口 |⑥-⑦-|
⑥⑩⑪口 |⑧⑨⑩⑪|
50
①⑦⑥口 |①-②③|
①口口⑥ |④⑤⑥-|
⑤④③② |⑦-⑧-|
⑨⑩⑪⑧ |⑨⑩⑪-|
51
口口口② |①-②-|
①⑤⑥口 |③---|
口③口④ |④---|
口口口口 |⑤-⑥-|
52
口口②口 |①-②-|
口口口① |③---|
④口③口 |④---|
口⑤⑤口 |⑤---|
53
⑤①①⑤ |①---|
口④⑥③ |--②-|
③口口② |③-④-|
口口口口 |⑤-⑥-|
54
口口②口 |--①-|
口⑤口口 |--②-|
口口④② |③-④-|
①⑥③① |⑤-⑥-|
55
⑥②口口 |①-②-|
①⑥⑦① |③-④-|
口③口⑤ |⑤---|
口口④⑤ |⑥-⑦-|
56
口口②① |①-②-|
口⑥⑥① |③-④-|
⑤口③口 |⑤---|
⑤④口口 |⑥---|
57
⑤①①⑥ |①---|
口④⑤③ |--②-|
③口口② |③-④-|
口口口口 |⑤-⑥-|
58
口①口口 |--①-|
口⑤口口 |--②-|
口口④③ |③-④-|
口⑥②② |⑤-⑥-|
59
⑥②口口 |①-②-|
①⑥⑦① |③-④-|
口③口⑤ |⑤---|
口口④⑤ |⑥-⑦-|
60
口④④① |①-②-|
②⑩⑨① |③-④-|
⑥③口⑤ |⑤⑥⑦⑧|
⑫⑧⑦⑪ |⑨⑩⑪⑫|
61
③②口口 |①---|
①口口① |--②-|
口口口口 |----|
口口口口 |③---|
62
口口口口 |①---|
口①②③ |--②-|
口口口口 |----|
口口口口 |③---|
63
口口口口 |①---|
③②口口 |--②-|
口①①口 |----|
口口口口 |③---|
64
⑤口口口 |①--②|
⑤口口口 |--③-|
口③口① |-④--|
④口②口 |⑤---|
65
口口口① |①---|
口口口② |②---|
口口口③ |③---|
口口口④ |④---|
66
④口口口 |①---|
③口口口 |②---|
②口口口 |③---|
①口口口 |④---|
67
口④口⑧ |①-②-|
⑦口③口 |③-④-|
口②口⑥ |⑤-⑥-|
⑤口①口 |⑦-⑧-|
68
③口②口 |①--②|
⑤①口④ |--③-|
④②口⑤ |-④--|
口口①③ |⑤---|

BPM: 165
69
口口口口 |①---|
口①①口 |----|
口口口口
口①①口

BPM: 160
口口口口
口口口口
口②②口 |②---|
口口口口 |----|

BPM: 147
70
口口口口 |①---|
口①①口 |----|
口口口口
口①①口

BPM: 123
口口口口
②口口②
口②②口 |②---|
②口口② |----|

BPM: 93
71
口②②口 |①-②-|
③①①⑤ |③④⑤⑥|
①④⑥①
口①①口

⑨口口⑨
口⑦⑦口
⑩口口⑪ |-⑦-⑧|
⑧口口⑧ |⑨-⑩⑪|
72
口②②口 |①-②-|
口口口口
口口口口
口①①口

BPM: 120
⑨口口⑨
③⑦⑦⑤ |③④⑤⑥|
⑩④⑥⑪ |-⑦-⑧|
⑧口口⑧ |⑨-⑩⑪|

BPM: 140
73
⑨②②⑨ |①-②-|
③⑦⑦⑤ |③④⑤⑥|
⑩④⑥⑪ |-⑦-⑧|
⑧①①⑧ |⑨-⑩⑪|

BPM: 155
74
口②②口 |①-②-|
③口口⑤ |③④⑤⑥|
口④⑥口
口①①口

BPM: 169
⑨口口⑨
口⑦⑦口
⑩口口⑪ |-⑦-⑧|
⑧口口⑧ |⑨-⑩⑪|

BPM: 200
75
⑨②②⑨ |①-②-|
③⑦⑦⑤ |③④⑤⑥|
⑩④⑥⑪ |-⑦-⑧|
⑧①①⑧ |⑨-⑩⑪|

BPM: 220
76
⑨②②⑨ |①-②-|
③⑦⑦⑤ |③④⑤⑥|
⑩④⑥⑪ |-⑦-⑧|
⑧①①⑧ |⑨-⑩⑪|

BPM: 260
77
口③③口 |①---|
②口口④ |②---|
口口口口 |③---|
口①①口 |④---|

BPM: 282
78
口口口口 |①---|
口③③口 |②---|
口①①口 |③---|
②口口④ |④---|

BPM: 311
79
④③②① |①-②-|
⑤口口① |③-④-|
⑥口口口 |⑤-⑥-|
⑦⑧口口 |⑦-⑧-|
80
⑧⑦⑥⑤ |①-②-|
口口口④ |③-④-|
口口口③ |⑤-⑥-|
口口①② |⑦-⑧-|
81
口口口口 |①-②-|
①口口⑧ |③-④-|
②口口⑦ |⑤-⑥-|
③④⑤⑥ |⑦-⑧-|
82
④③②① |①-②-|
⑤口口口 |③-④-|
⑥口口口 |⑤-⑥-|
⑦⑧口口 |⑦-⑧-|

BPM: 280
83
口口口口 |①-②-|
口⑤口④ |③-④-|
口口⑤③ |⑤---|
口口①② |----|
84
口②②口 |①---|
④口①口 |--②-|
口①口口 |----|
③口口③ |③-④-|

⑤口口⑦ |⑤-⑥-|
口⑫口⑥ |⑦-⑧-|
口⑩⑪口 |⑨-⑩-|
口⑧⑨口 |⑪-⑫-|
85
⑤②口⑥ |①-②-|
口口③口 |③-④-|
④⑧口④ |⑤-⑥-|
①⑦⑦① |⑦-⑧-|

口口⑨口 |⑨-⑩-|
⑩口口⑩ |----|
口口口口 |----|
口口口口 |----|
86
口③⑥口 |①-②-|
⑧②⑤口 |③-④-|
口④④口 |⑤-⑥-|
⑦①①⑦ |⑦-⑧-|

⑨口口⑪ |⑨-⑩-|
口⑯口⑩ |⑪-⑫-|
口⑭⑮口 |⑬-⑭-|
口⑫⑬口 |⑮-⑯-|
87
⑤②③⑥ |①-②-|
⑦口口⑦ |③-④-|
④⑧口④ |⑤-⑥-|
①口口① |⑦-⑧-|

口口口口 |⑨-⑩-|
口⑩⑩口 |----|
口口⑨口 |----|
口⑩⑩口 |----|
88
口口口口 |①-②-|
⑥口口③ |③-④-|
⑤口口② |⑤-⑥-|
④口口①
89
口口口口 |①-②-|
口⑥③口 |③-④-|
口⑤②口 |⑤-⑥-|
口①④口
90
口口口口 |①-②-|
⑥口口③ |③-④-|
⑤口口② |⑤-⑥-|
④口口①
91
口③⑥口 |①-②-|
口⑤②口 |③-④-|
口④①口 |⑤-⑥-|
口口口口
92
⑤口口口 |①-②-|
④口口② |--③-|
③口口① |④-⑤-|
口口口口
93
口口口口 |①-②-|
口⑥③口 |③-④-|
口⑤②口 |⑤-⑥-|
口①④口
94
口口口口 |①-②-|
⑥口口③ |③-④-|
⑤口口② |⑤-⑥-|
④口口①
95
口③⑥口 |①-②-|
口⑤②口 |③-④-|
口④①口 |⑤-⑥-|
口口口口
96
⑤口口口 |①-②-|
④口口② |--③-|
③口口① |④-⑤-|
口口口口
97
口口口口 |①-②-|
口⑥③口 |③-④-|
口⑤②口 |⑤-⑥-|
口①④口
98
口口口口 |①-②-|
⑥口口③ |③-④-|
⑤口口② |⑤-⑥-|
④口口①
99
口③⑥口 |①-②-|
口⑤②口 |③-④-|
口④①口 |⑤-⑥-|
口口口口
100
⑤口口口 |①-②-|
④口口② |--③-|
③口口① |④-⑤-|
口口口口
101
口口口口 |①-②-|
口⑥③口 |③-④-|
口⑤②口 |⑤-⑥-|
口①④口
102
口口口口 |①-②-|
⑥口口③ |③-④-|
⑤口口② |⑤-⑥-|
④口口①
103
口③⑥口 |①-②-|
口⑤②口 |③-④-|
口④①口 |⑤-⑥-|
口口口口
104
⑥口口③ |①-②-|
⑤口口② |③-④-|
④口口① |⑤-⑥-|
口口口口
105
口②②口 |①---|
口口口口 |----|
口口口口 |--②-|
口①①口

口口口口 |----|
口口口口 |----|
口口口口
口口口口
106
口口口口 |①---|
②②②② |----|
口①①口 |--②-|
口口口口

口口口口 |----|
口口口口 |----|
口口口口
口口口口

不確定度: 0

最終更新:2017年08月13日 14:13