FLOOR INFECTION Medley from SOUND VOLTEX×jubeat
United Composers from SOUND VOLTEX

ADVANCED

Level: 9
BPM: 145-195
Notes: 720

BPM: 189
1
口口口口 |----|
口口口口 |----|
口口口口 |----|
口口口口 |----|
2
口③②口 |①---|
③①①② |--②-|
口口口口 |----|
口口口口 |③---|
3
①口口① |--①-|
口口口口 |----|
②口口③ |②---|
②口口③ |③---|
4
口口口口 |①---|
口口口口 |--②-|
②①①③ |----|
口②③口 |③---|
5
③口口② |--①-|
③口口② |----|
口口口口 |②---|
①口口① |③---|
6
口③②口 |①---|
③①①② |--②-|
口口口口 |----|
口口口口 |③---|
7
①口口① |--①-|
口口口口 |----|
②口口③ |②---|
②口口③ |③---|
8
口口口口 |①---|
口口口口 |--②-|
②①①③ |----|
口②③口 |③---|
9
②口口② |--①-|
③口口③ |----|
口口口口 |②---|
①口口① |③---|
10
口口④口 |①-②-|
口①口⑧ |③-④-|
⑦⑤②口 |⑤-⑥-|
③口口⑥ |⑦-⑧-|
11
口⑤④口 |①-②-|
③①⑥⑧ |③-④-|
口口②口 |⑤-⑥-|
⑦口口口 |⑦-⑧-|
12
①口⑧口 |①-②-|
口⑤口口 |③-④-|
⑦口④② |⑤-⑥-|
口③口⑥ |⑦-⑧-|
13
口①口口 |①-②-|
⑤口④⑧ |③-④-|
口口⑥② |⑤-⑥-|
⑦③口口 |⑦-⑧-|
14
⑤①口④ |①-②-|
口口口口 |③-④-|
口③⑥② |⑤-⑥-|
口口口口
15
口口⑥口 |①-②-|
口③②口 |③-④-|
⑤口口口 |⑤-⑥-|
口①④口
16
⑦⑧⑨⑩ |①-②-|
①口口口 |③-④-|
口口②口 |⑤-⑥-|
⑤③⑥④ |⑦⑧⑨⑩|
17
口口口口 |①②③④|
①②③④ |⑤⑥⑦⑧|
⑤⑥⑦⑧ |⑨---|
⑨口口口 |----|

BPM: 195
18
口口口口 |----|
口口口口 |----|
口口口口 |----|
口口口口 |----|
19
②口口口 |①---|
口口口③ |②---|
口④⑤口 |③---|
口口①口 |④-⑤-|
20
口口口口 |--①-|
口①②口 |②---|
③口口口 |③---|
口④口口 |--④-|
21
②口口口 |①---|
口口口③ |②---|
口④⑤口 |③---|
口口①口 |④-⑤-|
22
口④口口 |--①-|
口①②口 |②---|
⑥口口⑤ |③-④-|
口口口③ |⑤-⑥-|
23
②口口口 |①---|
口口口③ |②---|
口④⑤口 |③---|
口口①口 |④-⑤-|
24
口口口口 |--①-|
口①②口 |②---|
③口口口 |③---|
口④口口 |--④-|
25
②口口口 |①---|
口口口③ |②---|
口④⑤口 |③---|
口口①口 |④-⑤-|
26
口④口口 |--①-|
口①②口 |②---|
⑥口口⑤ |③-④-|
口口口③ |⑤-⑥-|
27
②口口口 |①---|
口④⑦③ |②-③-|
口⑥⑤口 |④-⑤-|
口口①口 |⑥-⑦-|
28
口③口② |--①-|
口口口④ |②-③-|
⑤口口口 |④-⑤-|
①口口⑥ |⑥---|
29
口口②口 |①---|
③⑦口口 |②-③-|
口①①④ |④-⑤-|
⑤口⑥口 |⑥-⑦-|
30
口⑤②口 |--①-|
③口⑥口 |②-③-|
口⑦口口 |④-⑤-|
口①口④ |⑥-⑦-|
31
②口口口 |①---|
口④⑦③ |②-③-|
口⑥⑤口 |④-⑤-|
口口①口 |⑥-⑦-|
32
口③口② |--①-|
口口口④ |②-③-|
⑤口口口 |④-⑤-|
①口口⑥ |⑥---|
33
口口②口 |①---|
③⑦口口 |②-③-|
口①①④ |④-⑤-|
⑤口⑥口 |⑥-⑦-|
34
口⑤②口 |--①-|
③口⑥口 |②-③-|
口⑦口口 |④-⑤-|
口①口④ |⑥-⑦-|
35
口口口口 |①---|
口口口口 |----|
口口口口 |----|
口口①口 |----|
36
口口口口 |----|
口口口口 |----|
口口口口 |----|
口口口口 |----|

BPM: 195
37
⑩口口口 |①②③-|
口⑨④口 |④-⑤⑥|
⑤②①⑥ |⑦-⑧-|
⑦口③⑧ |⑨-⑩-|
38
⑩口④口 |①②③-|
②⑧⑨① |④-⑤⑥|
口⑤③⑥ |⑦-⑧-|
口⑦口口 |⑨-⑩-|
39
口口⑨口 |①②③-|
⑧口口④ |④-⑤⑥|
②⑤①⑥ |⑦-⑧-|
⑦⑩口③ |⑨-⑩-|
40
口⑥⑤口 |①---|
口口①口 |--②③|
口②③④ |④---|
口口口口 |--⑤⑥|
41
①口口③ |①---|
口口④口 |--②-|
口口口⑤ |③-④-|
口②⑥口 |⑤-⑥-|
42
口口⑥⑤ |①---|
口①口口 |--②③|
②③④口 |④---|
口口口口 |--⑤⑥|
43
口①口口 |①---|
口③⑥② |--②-|
口口④口 |③-④-|
口⑤口口 |⑤-⑥-|
44
⑦②④⑦ |①-②-|
⑤⑧口⑤ |③-④-|
③口口③ |⑤-⑥-|
①⑥口① |⑦-⑧-|
45
⑩口口口 |①②③-|
口⑨④口 |④-⑤⑥|
⑤②①⑥ |⑦-⑧-|
⑦口③⑧ |⑨-⑩-|
46
⑩口④口 |①②③-|
②⑧⑨① |④-⑤⑥|
口⑤③⑥ |⑦-⑧-|
口⑦口口 |⑨-⑩-|
47
口口⑨口 |①②③-|
⑧口口④ |④-⑤⑥|
②⑤①⑥ |⑦-⑧-|
⑦⑩口③ |⑨-⑩-|
48
口⑥⑤口 |①---|
口口①口 |--②③|
口②③④ |④---|
口口口口 |--⑤⑥|
49
①口口③ |①---|
口口④口 |--②-|
口口口⑤ |③-④-|
口②⑥口 |⑤-⑥-|
50
口口口口 |①---|
口①口口 |--②③|
②③④口 |④---|
口口⑤口 |--⑤-|
51
①⑤⑦③ |①-②-|
口口口口 |③-④-|
口口口口 |⑤-⑥-|
②⑥⑧④ |⑦-⑧-|
52
口口口口 |①②③④|
⑤⑥⑦⑧ |⑤⑥⑦⑧|
①②③④
口口口口

BPM: 145
⑩口口⑨
口口口口
口口口口 |⑨---|
⑨口口⑩ |⑩---|
53
口口口③ |①-②-|
②口③口 |③---|
口②口①
口口①口

④④口口
口口口口
口口口口 |④---|
口口⑤⑤ |⑤---|
54
口口口口 |①-②-|
口⑤⑥① |③-④-|
④口②⑦ |⑤-⑥-|
口③⑧口 |⑦-⑧-|
55
①①口口 |①-②-|
②②口口 |③---|
③③口口
口口口口

⑤口口④
口口口口
口口口口 |④---|
④口口⑤ |⑤---|
56
口口口口 |①-②-|
④③②① |③-④-|
⑧⑦⑥⑤ |⑤-⑥-|
口口口口 |⑦-⑧-|
57
②口③① |①-②-|
②口③① |③---|
口④⑤口 |④---|
口⑤④口 |⑤---|
58
口⑥⑤口 |①-②-|
口⑧⑦口 |③-④-|
④口口③ |⑤-⑥-|
②口口① |⑦-⑧-|
59
口口口口 |①-②-|
③口口③ |③---|
口②②口
口①①口

口口口口
口④⑤口
口口⑦⑥ |④-⑤-|
口口口口 |⑥-⑦-|
60
口⑥⑤④ |①-②-|
①②③口 |③---|
口⑥⑤④ |④-⑤-|
①②③口 |⑥---|

BPM: 185
61
口口口口 |①---|
⑤①①口 |--②③|
⑥口④口 |④-⑤-|
⑦③②口 |⑥-⑦-|
62
口①口① |①---|
③②③② |②---|
④口④口 |③---|
口口口口 |④---|
63
①口口① |①---|
⑤口④口 |--②③|
⑥③口口 |④-⑤-|
⑦口②口 |⑥-⑦-|
64
口③①口 |①---|
③口口① |②---|
口④②口 |③---|
④口口② |④---|
65
①口口① |①---|
口④口⑤ |--②③|
口口③⑥ |④-⑤-|
口②口⑦ |⑥-⑦-|
66
①口①口 |①---|
②③②③ |②---|
口④口④ |③---|
口口口口 |④---|
67
①口口① |①---|
口④口⑤ |--②③|
口口③⑥ |④-⑤-|
口②口⑦ |⑥-⑦-|
68
口①③口 |①---|
①口口③ |②---|
口②④口 |③---|
②口口④ |④---|
69
①口口① |①---|
⑤口④口 |--②③|
⑥③口口 |④-⑤-|
⑦口②口 |⑥-⑦-|
70
口①口① |①---|
③②③② |②---|
④口④口 |③---|
口口口口 |④---|
71
④②②④ |----|
口口口口 |①-②-|
口⑤⑤口 |③-④-|
③①①③ |⑤---|
72
⑤④④⑤ |①--②|
②②①① |--③-|
口口口口 |-④--|
口③③口 |⑤---|
73
⑩⑨⑧⑦ |①---|
②③④⑤ |②③④⑤|
口①①口 |⑥---|
口⑥⑥口 |⑦⑧⑨⑩|
74
口口口口 |①---|
⑩⑨⑧⑦ |②③④⑤|
②③④⑤ |⑥---|
①⑥⑥① |⑦⑧⑨⑩|
75
③①①② |①---|
⑥⑦⑧⑨ |②-③-|
⑤口口④ |④-⑤-|
口口口口 |⑥⑦⑧⑨|
76
⑤①①③ |①---|
口口口口 |②---|
口②②口 |③-④-|
口⑥④口 |⑤-⑥-|

BPM: 190
77
口口口口 |①---|
口口口口 |②---|
②②口口


④④④④
③③③口
口口口口 |③---|
口口口 |④---|
78
口口口口 |①--②|
口口口口 |③④⑤⑥|
③④⑤⑥
口①口②

口⑪⑫口
⑦⑧⑨⑩
口口口口 |⑦⑧⑨⑩|
口⑬口口 |⑪⑫⑬-|
79
③口口③ |--①-|
口口口口 |--②-|
①④⑤② |-③--|
①④⑤② |④-⑤-|
80
④②②③ |①---|
①⑤⑤① |②---|
口口口口 |③--④|
③口口④ |--⑤-|
81
口④④口 |①--②|
②口口① |--③-|
口②①口 |④---|
口③③口 |----|
82
口口口⑤ |①-②③|
口②口① |④-⑤-|
口口③⑤
口④口①

口口口口

口口口口 |⑥---|


口⑩口口
口⑨口
口⑧口口
口⑦口 |⑦⑧⑨⑩|
83
口口口⑤ |①-②③|
口②口① |④-⑤-|
口口③⑤
口④口①


口口口口
口 |⑥---|
口口口口

⑩口口
口口⑨口
⑧口口
口口⑦口 |⑦⑧⑨⑩|
84
⑥口①⑤ |①--②|
④④口① |--③-|
⑥口⑤③ |④--⑤|
②②口③ |--⑥-|
85
口①①口 |①---|
口④③② |--②③|
口口口口 |④---|
口口⑤⑤ |⑤---|
86
口 |①---|
口口口口
口口口口
口口口口


口口口口 |②---|
口口口口 |③---|
②口口口

口口口
口口口口
口口口口
口口口④ |④---|
87
口 |①---|
口口口口
口口口口
口口口口

口口
口口口口 |②---|
口口口口
口②口口


口口口口
口口口口 |③---|
口口口口

口口
口口口口
口口口口
口口④口 |④---|
88
口 |①---|
口口口口
口口口口
口口口口


口口口口 |②---|
口口口口 |③---|
②口口口

口口口
口口口口
口口口口
口口口④ |④---|
89
口 |①---|
口口口口
口口口口
口口口口

口口
口口口口 |②---|
口口口口
口②口口


口口口口
口口口口 |③---|
口口口口

口口
口口口口
口口口口
口口④口 |④---|
90
口 |①---|
口口口口
口口口口
口口口口


口口口口 |②---|
口口口口 |③---|
②口口口

口口口
口口口口
口口口口
口口口④ |④---|
91
口 |①---|
口口口口
口口口口
口口口口

口口
口口口口 |②---|
口口口口
口②口口


口口口口
口口口口 |③---|
口口口口

口口
口口口口
口口口口
口口④口 |④---|
92
⑧口口口 |①-②-|
①⑦④口 |③-④-|
口③⑥口 |⑤-⑥-|
②口口⑤ |⑦-⑧-|
93
口⑧口① |①-②-|
②口⑦口 |③-④-|
口⑥口③ |⑤-⑥-|
④口⑤口 |⑦-⑧-|
94
口 |----|
|①---|
口 |----|
|----|
95
口口口口 |----|
口口口口 |----|
口口口口 |----|
口口口口 |----|
96
口口口 |①---|
口口 |----|
口口口 |----|
口口 |----|

不確定度: 0

最終更新:2017年08月13日 14:12