蟲の棲む処
かめりあ feat. Nana Takahashi
EXTREME
Level: 10
BPM: 161.5
Notes: 684
1
口口口口 |----|
口口口口 |----|
口口口口 |----|
口口口口 |----|
2
口口口口 |----|
口口口口 |----|
口口口口 |----|
口口口口 |----|
3
口口②口 |----|
口口口② |----|
①口口口 |----|
口①口口 |①-②-|
4
①口⑤口 |①---|
口口②⑤ |--②③|
口③口口 |④---|
口口④① |⑤---|
5
口②口口 |①---|
②口口口 |②---|
①口口②
口①②口
口口口口
口口口口
③口口口 |----|
口口口口 |③---|
6
口口口⑤ |①---|
口口②① |--②③|
口③口口 |④---|
⑤口④口 |⑤---|
7
①②③口 |①---|
口口④口 |②---|
口⑤口口 |③---|
口③②① |--④⑤|
8
①⑤口① |①---|
⑤②口口 |--②③|
口口③口 |④---|
口④口口 |⑤---|
9
③口②口 |①---|
口口口② |②---|
②口口① |----|
口②①③ |③---|
10
口口①口 |①---|
口②口① |②-③-|
①口③口
口①口口
口口⑤口
口口口口
口⑥口口 |④---|
口口口④ |--⑤⑥|
11
口口口口 |①---|
口②③口 |--②③|
口口口口
口口①口
口⑤⑦口
⑤口口⑦
④口口⑥ |④-⑤-|
口④⑥口 |⑥-⑦-|
12
①口口① |①---|
口②③口 |②---|
口口口④ |③---|
口口口口 |④---|
13
⑦⑧⑨口 |①---|
口⑥⑤④ |②---|
③口口口 |③---|
口②①口 |④⑤⑥⑦⑧⑨|
14
口口口口 |①---|
口口口口 |②-③-④-|
②③③②
④①①④
⑨口口⑨
⑧⑦⑥⑤
口口口口 |⑤⑥⑦⑧|
口口⑩口 |⑨-⑩-|
15
口口①口 |①-②-|
口口口⑤ |③-④⑤|
④②⑤①
②口口③
⑥⑧⑧口
⑨⑥口口
口口口口 |-⑥-⑦|
口⑦⑦口 |-⑧-⑨|
16
口口口口 |①---|
口口口口 |②-③-④-|
②③③②
①④④①
口⑨⑨口
⑧⑦⑥⑤
口口口口 |⑤⑥⑦⑧|
⑩口口⑩ |⑨-⑩-|
17
②口口① |①②③④|
⑧口⑦口 |⑤⑥⑦⑧|
口⑥③口
口④⑤口
口口⑨口
口⑩口⑪
⑫口⑮⑬ |⑨⑩⑪⑫|
⑭⑯口口 |⑬⑭⑮⑯|
18
④②②④ |①---|
口③③口 |②-③-④-|
口口口口
口口①①
口口口口
⑨口口口
⑤⑥⑦⑧ |⑤⑥⑦⑧|
⑨口⑩口 |⑨-⑩-|
19
③口②④ |①-②-|
口⑤口① |③-④⑤|
⑤口口口
口口口①
口口口口
⑦口⑥⑧
口口⑨⑥ |-⑥-⑦|
口⑦⑧口 |-⑧-⑨|
20
②②②② |①---|
口口口口 |②---|
口口口口
①口口①
口口口口
⑥④④⑥
③③口口 |③-④-|
口口⑤⑤ |⑤-⑥-|
21
⑥②⑦① |①②③④|
口口口口 |⑤⑥⑦⑧|
⑧口③⑤
④口口口
口⑯口口
⑫口⑮⑪
口⑭口口 |⑨⑩⑪⑫|
口⑩⑨⑬ |⑬⑭⑮⑯|
22
②口口口 |①---|
③口口口 |--②-|
④口①① |③-④-|
口⑤⑥口 |⑤-⑥-|
23
②③④口 |①---|
口口口⑤ |--②-|
口口口⑥ |③-④-|
口口口① |⑤-⑥-|
24
口③口口 |①---|
口口②口 |--②-|
口②口口 |③---|
口口③① |----|
25
口口口口 |①---|
口口口口 |----|
口口③口 |②---|
①口口② |③---|
26
口④③② |①---|
⑤口口① |--②-|
⑥口口口 |③-④-|
口口口口 |⑤-⑥-|
27
口口口② |①---|
口口口③ |--②-|
口口口④ |③-④-|
①⑥⑤口 |⑤-⑥-|
28
口口口口 |①---|
口②④③ |--②-|
③④②口 |③---|
①口口口 |--④-|
29
③①②② |①---|
③口口口 |--②-|
口口口③ |③---|
②②①③ |----|
30
口①口口 |①---|
口②②① |----|
①②②口 |②---|
口口①口 |----|
31
①①口② |①---|
①口口口 |②---|
口口口①
口口①①
口④⑤口
⑤口③④
④③口⑤ |③---|
口⑤④口 |④-⑤-|
32
①口口③ |①---|
口①②口 |②-③④|
口④①口
口口口①
⑥⑥口口
⑥口口口
口口口口 |⑤---|
口口⑤口 |⑥---|
33
口口口口 |①---|
口①口② |②---|
口②①口
口口②①
口④口口
④④口口
③口④口 |③---|
口③口④ |④---|
34
②口③① |①---|
口口①⑥ |②-③④|
④①⑥⑤ |⑤---|
①口②⑥ |⑥---|
35
口①口口 |①---|
②口①口 |②---|
口①口口
②②口口
口④④口
口③口③
⑤口③口 |③---|
口口口⑥ |④-⑤⑥|
36
口口口① |①---|
④口①③ |②-③④|
口①口口
①②口口
口口口口
口口口口
口⑥⑥⑥ |⑤---|
口口⑤口 |⑥---|
37
①①①口 |①---|
口口口口 |②---|
口口口口
②②口口
口⑥口④
⑥口④口
口⑤⑤③ |③④-⑤|
口口③口 |⑥---|
38
口口①③ |①---|
口口口① |②-③-|
①口口②
③①②口
口④口口
④口口⑥
⑦口⑤口 |④-⑤-|
口口口口 |--⑥⑦|
39
②口口③ |①--②|
口口口口 |--③-|
口③口②
口口①口
口口⑦口
⑥④⑤口
⑦口口口 |④-⑤-|
⑤口⑥④ |⑥-⑦-|
40
①口口③ |①-②-|
口③④口 |③-④-|
口②①口
口口口口
口⑤口口
口口口⑤
口口⑧⑦ |⑤-⑥-|
口⑦⑥口 |⑦-⑧-|
41
⑥②②⑤ |①---|
口④口④ |②-③-|
⑤①口⑥ |④--⑤|
③口③① |--⑥-|
42
口①①⑤ |①-②-|
口③③⑥ |③-④-|
口④口⑥ |⑤---|
口②②口 |--⑥-|
43
口口口口 |①-②-|
①③②口 |③-④-|
①③②口
口口口④
口⑤⑦口
口口⑧⑦
口口口⑧ |⑤-⑥⑦|
口口⑥口 |--⑧-|
44
③口口② |①-②-|
口③口口 |③-④-|
口①①口
口口口④
口⑤口口
⑤口口口
⑦口⑧口 |⑤-⑥-|
口⑦⑥口 |⑦-⑧-|
45
口口口口 |①---|
口②口口 |--②-|
口①口口
①口口②
口④口④
⑤口口③
⑤口口口 |③--④|
⑤③口口 |--⑤-|
46
②口②口 |①--②|
口口①③ |--③-|
口口①口
口口①③
口口口口
⑤④⑥口
口⑤口⑥ |④--⑤|
口④口口 |--⑥-|
47
③②⑤② |①--②|
口④口⑤ |--③-|
口口④⑤ |④---|
①口①③ |⑤---|
48
口①口口 |①---|
①口口口 |②---|
①口口口 |③---|
④③②口 |④---|
49
①①口口 |①---|
口口口口 |②---|
口口口口 |③---|
④③②① |④---|
50
①①口口 |①---|
口口口口 |②---|
口口口口 |③---|
④③②① |④---|
51
口口口口 |①---|
口⑨⑧⑦ |②---|
④⑤⑥口 |③---|
口③②① |④⑤⑥⑦⑧⑨|
52
③①①口 |①---|
②口口口 |②-③④|
口口口口
口口口④
口⑩⑩口
口口口口
⑤⑥⑦⑧ |⑤⑥⑦⑧|
⑨⑪⑪口 |⑨-⑩-⑪-|
53
口口口① |①-②③|
②③口④ |④-⑤⑥|
⑤⑥口口
口口口口
⑩⑧⑧⑩
口⑫⑫口
口口口⑦ |⑦-⑧-⑨-|
⑪⑨⑨⑪ |⑩-⑪-⑫-|
54
口口口口 |①---|
②口口口 |②-③④|
口口①③
口④口口
⑤⑧⑧口
口⑦口⑥
口⑨⑨口 |⑤-⑥⑦|
口口口口 |⑧-⑨-|
55
⑧口口① |①②③④|
②口口⑦ |⑤⑥⑦⑧|
⑥口口③
口④口⑤
口口⑬口
⑭⑩⑨口
口口⑪⑮ |⑨⑩⑪⑫|
⑫⑯口口 |⑬⑭⑮⑯|
56
②口口② |①---|
口口④③ |②-③④|
口口口口
口口①①
口⑩⑩口
⑨口口口
⑤⑥⑦⑧ |⑤⑥⑦⑧|
口⑪⑪口 |⑨-⑩-⑪-|
57
⑤口口① |①-②③|
口③口⑥ |④-⑤⑥|
口口口口
②口口④
口⑧⑧口
⑦⑫⑫口
⑩⑪⑪⑩ |⑦-⑧-⑨-|
口⑨⑨口 |⑩-⑪-⑫-|
58
②⑥⑥② |①---|
口口⑤口 |②---|
③⑦⑦口 |③-④⑤|
①④口① |⑥-⑦-|
59
口口口① |①②③④|
口②口⑤ |⑤⑥⑦⑧|
⑥口口③
④⑧口⑦
⑩⑯口口
⑫口⑨口
口⑭⑪⑮ |⑨⑩⑪⑫|
口口⑬口 |⑬⑭⑮⑯|
60
③口①① |①--②|
⑤④⑤④ |--③-|
④口④口 |-④--|
②②口③ |⑤---|
61
口②②口 |①--②|
口口口口 |--③-|
口①口③
①口③口
④口口⑧
口⑤⑨口
口⑩⑥口 |④⑤⑥⑦|
⑪口口⑦ |⑧⑨⑩⑪|
62
口①①口 |①--②|
口口口口 |--③-|
③口口③
口②②口
口⑤⑤口
④口口④
口⑤⑤口 |-④--|
口口口口 |⑤---|
63
②口口② |①--②|
口口口口 |--③④|
③口口口
④口①①
口⑤⑨口
口⑥口⑨
口⑦⑧口 |⑤⑥⑦-|
口口口⑧ |⑧--⑨|
64
②口口口 |--①②|
③口口口 |③④⑤-|
④口口口
⑤①①口
⑨口⑦口
口⑧⑧⑦
口口⑥口 |⑥--⑦|
口口口⑥ |--⑧⑨|
65
口口口③ |①②-③|
①口口口 |----|
②口口③ |----|
口口口口 |----|
66
口口口口 |----|
①口口口 |-----①--|
口口口口 |----|
①口口口 |----|
不確定度: 0