CARNIVOROUS
SOUND HOLIC feat. Nana Takahashi

EXTREME

Level: 9
BPM: 170
Notes: 570

1
口口口口 |----|
口口口口 |----|
口口口口 |----|
口口口口 |----|
2
口口口① |----|
口口口口 |----|
①口口口 |----|
口口口口 |--①-|
3
④口口⑤ |--①-|
口口①口 |②-③-|
⑤②③④ |④---|
口口口口 |--⑤-|
4
④口口口 |--①-|
口口①口 |②-③-|
口②③④ |④---|
口⑤⑥口 |⑤-⑥-|
5
①④口② |----|
口口口口 |①---|
口口③口 |②--③|
口口口口 |--④-|
6
口口①口 |①---|
③②②④ |--②-|
⑤口口口 |--③-|
口口口口 |④-⑤-|
7
口口口口 |①-②③|
口口口口 |----|
口②③①
口口口口

口口口口
④口口⑤
口⑥⑦口 |--④-|
口口口口 |⑤-⑥⑦|
8
口①②③ |--①-|
④口口口 |②-③-|
口⑤⑥口 |----|
口口口口 |④-⑤⑥|
9
口口口口 |----|
①口口② |----|
口③④口 |--①-|
口口口口 |②-③④|
10
口口口② |----|
口③③① |----|
口口口口 |①-②-|
口口口口 |--③-|
11
口②口② |--①-|
②口②口 |----|
口①①口 |----|
口口口口 |②---|
12
口口①⑥ |①-②-|
口口⑤③ |③---|
口④口口 |④--⑤|
口口②口 |--⑥-|
13
②①口口 |①-②-|
④③口⑨ |③-④-|
口⑤⑦⑧ |⑤-⑥⑦|
口口⑥口 |-⑧⑨-|
14
⑥①口口 |①-②-|
③⑤口口 |③---|
口口④口 |④--⑤|
口②口口 |--⑥-|
15
口口口口 |①-②-|
口口①② |③-④-|
口口③④
口口口口

口口⑨口
口⑥⑧口
口⑤口口 |⑤⑥-⑦|
口口⑦口 |-⑧⑨-|
16
⑥①口口 |①-②-|
③⑤口口 |③---|
口口④口 |④--⑤|
口②口口 |--⑥-|
17
口口①② |①-②-|
⑨口③④ |③-④-|
⑧⑦⑤口 |⑤-⑥⑦|
口⑥口口 |-⑧⑨-|
18
口口①⑥ |①-②-|
口口⑤③ |③---|
口④口口 |④--⑤|
口口②口 |--⑥-|
19
②③口口 |①-②-|
口①⑤④ |③-④-|
口口口口 |⑤-⑥-|
口⑥⑦⑧ |⑦-⑧-|
20
⑤④口⑤ |--①-|
②①口口 |②---|
①②口口 |③-④-|
口③口口 |--⑤-|
21
口口②口 |--①-|
⑧③口① |②-③-|
⑦口④口 |④-⑤-|
口⑤⑥口 |⑥-⑦⑧|
22
⑤口④⑤ |--①-|
口口①② |②---|
口口②① |③-④-|
口口③口 |--⑤-|
23
口口④口 |----|
口口③口 |①-②-|
口②⑤口 |③-④-|
口①口口 |--⑤-|
24
⑧⑥口⑧ |①-②-|
③②⑥⑦ |③-④-|
②③口③ |⑤-⑥-|
口⑤①④ |⑦-⑧-|
25
口④④口 |----|
口口③口 |--①-|
口②口口 |②-③-|
口口①口 |--④-|
26
口⑥⑥③ |--①-|
②①口口 |②-③-|
口⑤①② |--④-|
③口④口 |⑤-⑥-|
27
口口口① |----|
口口②口 |----|
口口口口 |----|
口口口口 |①-②-|
28
⑤口④口 |①---|
口口口③ |②-③-|
口口②① |④---|
口口口口 |--⑤-|
29
⑤⑥口口 |--①-|
④②口口 |②-③-|
③①口口 |④---|
口口口口 |⑤-⑥-|
30
口口③① |①---|
④④②② |②---|
口口③① |③---|
口口口口 |--④-|
31
④③③口 |--①-|
口⑤口口 |②---|
①②口口 |③---|
②①口口 |④-⑤-|
32
口④口⑤ |①---|
③口口口 |②-③-|
①②口口 |④---|
口口口口 |--⑤-|
33
口口口口 |--①-|
口口②④ |②-③-|
口口①③ |④---|
口口⑥⑤ |⑤-⑥-|
34
②口口① |--①-|
口口口口 |--②-|
①④口② |--③-|
口⑤③口 |④-⑤-|
35
口④口① |①---②-|
口②③口 |③-④-|
①口口口
口口④口

口口⑦⑦
⑦口口口
⑦⑥口口 |--⑤-|
口⑤口口 |⑥-⑦-|
36
④④⑤⑤ |--①-|
⑤①口④ |②-③-|
⑤口口④ |④---|
口③②口 |--⑤-|
37
口口口口 |--①-|
口①口口 |②-③-|
口口口口
口③②口

④④口口
⑤⑥口④
⑥⑤口④ |④---|
口口口口 |⑤-⑥-|
38
①①②口 |----|
口③④口 |①---|
③口口④ |②--③|
口②①① |--④-|
39
①⑤④① |①---|
②口口② |--②-|
口①①口 |--③-|
②③口② |④-⑤-|
40
口口口口 |①-②③|
口口口口 |----|
口②③口
口口①口

口口口⑤
口口口口
口⑥⑦口 |--④-|
口口口④ |⑤-⑥⑦|
41
①②③口 |--①-|
②①口③ |②-③-|
③口口口 |----|
口③口口 |----|
42
③口口③ |①---|
④口口口 |--②-|
⑤口口口 |③---|
①②②① |④-⑤-|
43
口口③④ |①-②-|
口口④② |③-④-|
口④①口
④口口口

⑥⑥口口
口⑤口⑥
口口⑤⑥ |----|
口口口口 |⑤-⑥-|
44
⑤⑤④④ |--①-|
④口①⑤ |②-③-|
④口口⑤ |④---|
口②③口 |--⑤-|
45
口口口口 |--①-|
口口①口 |②-③-|
口口口口
口②③口

口口④④
④口⑥⑤
④口⑤⑥ |④---|
口口口口 |⑤-⑥-|
46
口②①① |----|
口④③口 |①---|
④口口③ |②--③|
①①②口 |--④-|
47
①④⑤① |①---|
②口口② |--②-|
口①①口 |--③-|
②口③② |④-⑤-|
48
口口口口 |①-②③|
口口口口 |----|
口③②口
口①口口

⑤口口口
口口口口
口⑦⑥口 |--④-|
④口口口 |⑤-⑥⑦|
49
口③②① |--①-|
③口①② |②-③-|
口口口③
口口③口

口口口口
口口⑤口
④④⑥口 |----|
口口口口 |④-⑤⑥|
50
口口口口 |----|
②②口③ |----|
①①口④ |--①-|
口口口口 |②-③④|
51
口②③① |----|
口④④口 |----|
口④④口 |①-②-|
①③②口 |③-④-|
52
①口口口 |--①-|
②⑤⑤① |②---|
①口④② |③--④|
口③口① |--⑤-|
53
口口口口 |--①-|
①口口④ |②-③-|
②⑥口③ |④--⑤|
口口⑤口 |--⑥-|
54
③口口口 |--①-|
②⑥⑥口 |②-③-|
①口⑤口 |④--⑤|
口④口口 |--⑥-|
55
口③②① |--①-|
⑤口口⑤ |②-③-|
口④④口 |④--⑤|
⑥口口⑥ |--⑥-|
56
④①②③ |--①-|
口⑤口口 |②-③-|
口口⑥口 |④--⑤|
口口口口 |--⑥-|
57
③②①④ |--①-|
口口⑤口 |②-③-|
口⑥口口 |④--⑤|
口口口口 |--⑥-|
58
④①②③ |--①-|
口⑤口口 |②-③-|
口口⑥口 |④--⑤|
口口口口 |--⑥-|
59
③②①④ |--①-|
⑦⑤⑥⑧ |②-③-|
⑦⑤⑥⑧ |④⑤⑥⑦|
口口口口 |⑧---|
60
口口口⑥ |①-②-|
口口⑤口 |③---|
口④口口 |④--⑤|
口①②③ |--⑥-|
61
②①口口 |①-②-|
④③口⑨ |③-④-|
口⑤⑦⑧ |⑤-⑥⑦|
口口⑥口 |-⑧⑨-|
62
①②③口 |①-②-|
口口口口 |③---|
口口口口
口口口口

⑥口口口
口⑤口口
口口④口 |④--⑤|
口口口口 |--⑥-|
63
口口口口 |①-②-|
口口①② |③-④-|
口口③④
口口口口

口口⑨口
口⑥⑧口
口⑤口口 |⑤⑥-⑦|
口口⑦口 |-⑧⑨-|
64
⑥①口口 |①-②-|
③⑤口口 |③---|
口口④口 |④--⑤|
口②口口 |--⑥-|
65
口口①② |①-②-|
⑨口③④ |③-④-|
⑧⑦⑤口 |⑤-⑥⑦|
口⑥口口 |-⑧⑨-|
66
口口①⑥ |①-②-|
⑤口口③ |③---|
口口④口 |④--⑤|
口口②口 |--⑥-|
67
⑨①⑤口 |①②③④|
⑩②⑥口 |⑤⑥⑦⑧|
⑪③⑦口 |⑨⑩⑪⑫|
⑫④⑧口 |----|
68
口口口口 |①-②-|
口口⑥口 |③---|
口口③① |④---|
口④⑤② |⑤-⑥-|
69
口口口口 |①-②-|
口⑥口口 |③---|
①③口口 |④---|
②⑤④口 |⑤-⑥-|
70
口口口口 |①-②-|
口口⑥口 |③---|
口口③① |④---|
口④⑤② |⑤-⑥-|
71
口口口口 |①-②-|
口口口口 |③---|
①③⑥口 |④---|
②⑤④口 |⑤-⑥-|
72
口口口口 |①-②-|
口口③① |③---|
口⑥口口 |④---|
口④⑤② |⑤-⑥-|
73
口口口口 |①-②-|
①③口口 |③---|
口口⑥口 |④---|
②⑤④口 |⑤-⑥-|
74
①⑤⑥② |①-②-|
③⑦⑧④ |③-④-|
口口口口 |⑤-⑥-|
口口口口 |⑦-⑧-|
75
①⑨⑩⑤ |①②③④|
②⑪⑫⑥ |⑤⑥⑦⑧|
③⑬⑭⑦ |⑨⑩⑪⑫|
④⑮⑯⑧ |⑬⑭⑮⑯|

不確定度: 0

最終更新:2017年08月15日 01:07