スペースカーニバル
shooting star

EXTREME

Level: 9
BPM: 160
Notes: 733

1
口口口口 |----|
口口口口 |----|
口口口口 |----|
口口口口 |----|
2
⑬⑦⑧⑨ |①②③④|
⑭⑤⑥⑩ |⑤⑥⑦⑧|
⑮③④⑪ |⑨⑩⑪⑫|
⑯①②⑫ |⑬⑭⑮⑯|
3
⑬⑦⑧⑨ |①②③④|
⑭⑤⑥⑩ |⑤⑥⑦⑧|
⑮③④⑪ |⑨⑩⑪⑫|
⑯①②⑫ |⑬⑭⑮⑯|
4
⑬⑦⑧⑨ |①②③④|
⑭⑤⑥⑩ |⑤⑥⑦⑧|
⑮③④⑪ |⑨⑩⑪⑫|
⑯①②⑫ |⑬⑭⑮⑯|
5
⑬⑦⑧⑨ |①②③④|
⑭⑤⑥⑩ |⑤⑥⑦⑧|
⑮③④⑪ |⑨⑩⑪⑫|
⑯①②⑫ |⑬⑭⑮⑯|
6
⑨⑧⑦⑬ |①②③④|
⑩⑥⑤⑭ |⑤⑥⑦⑧|
⑪④③⑮ |⑨⑩⑪⑫|
⑫②①⑯ |⑬⑭⑮⑯|
7
⑨⑧⑦⑬ |①②③④|
⑩⑥⑤⑭ |⑤⑥⑦⑧|
⑪④③⑮ |⑨⑩⑪⑫|
⑫②①⑯ |⑬⑭⑮⑯|
8
口⑧⑦口 |①②③④|
口⑥⑤口 |⑤⑥⑦⑧|
口④③口
口②①口

⑨口口⑫
⑩口口⑬
⑪口口⑭ |⑨⑩⑪⑫|
⑪⑮口⑮ |⑬⑭⑮-|
9
口口口口 |--①-|
③②⑤④ |②-③-|
口①⑥口 |④-⑤-|
⑦口口⑦ |⑥-⑦-|
10
口口口口 |--①-|
③②⑤④ |②-③-|
口①⑥口 |④-⑤-|
⑦口口⑦ |⑥-⑦-|
11
③②⑤④ |--①-|
⑦①⑥口 |②-③-|
⑦口口口 |④-⑤-|
口⑦口口 |⑥-⑦-|
12
②②②② |--①-|
口口口① |--②-|
口口口①
口口①口

口口口口
口④口口
口③口口 |--③-|
口口⑤⑤ |④-⑤-|
13
口④口⑥ |--①-|
口口③⑥ |②-③-|
①口②口 |④-⑤-|
口⑤口口 |--⑥-|
14
⑤⑤口口 |--①-|
②口口口 |②---|
口口①③ |③-④-|
口口口④ |--⑤-|
15
口口口口 |--①-|
口②⑤口 |②-③-|
口①④口 |④-⑤-|
⑥⑥③口 |--⑥-|
16
口口口③ |--①-|
口口口口 |②-③-|
口口②口
口口口①

口⑤口口
口口口口
口口口⑥ |④-⑤-|
口口④⑥ |--⑥-|
17
⑥④口口 |--①-|
⑥口③口 |②-③-|
①口②口 |④-⑤-|
口⑤口口 |--⑥-|
18
口⑥⑥口 |--①-|
口②⑤口 |②-③-|
口①④口 |④-⑤-|
口口③口 |--⑥-|
19
口口口④ |--①-|
③口口口 |②-③-|
⑤口口② |④-⑤-|
①⑥⑥口 |--⑥-|
20
④②②④ |--①-|
⑤①①⑤ |②-③-|
口口口口 |④-⑤-|
③口口③ |----|
21
②②③③ |----|
②②③③ |①---|
②①口① |②---|
口①①① |③---|
22
④口口口 |①---|
④口③口 |②---|
口①③② |③---|
口①口② |④---|
23
口⑦⑧口 |①-②-|
口⑤⑥口 |③-④-|
口③④口 |⑤-⑥-|
①①②口 |⑦-⑧-|
24
⑦⑦⑧⑧ |①-②-|
⑤⑤⑥⑥ |③-④-|
③③④④ |⑤-⑥-|
①①②② |⑦-⑧-|
25
口口口口 |----|
①③③② |①---|
①口口② |②---|
②③③① |③---|
26
①口口① |①---|
②口口② |②---|
口①①口
②口口②

④口口④
口口口口
③④④③ |③---|
口③③口 |④---|
27
口①①口 |①---|
口①①口 |----|
口口口口 |----|
口口口口 |----|
28
③口口① |①---|
③③①① |②-③-|
口①①②
口口口②

口口⑥⑥
口口⑤⑤
口口口口 |--④-|
④④口口 |⑤-⑥-|
29
口③⑥⑥ |--①-|
口②口口 |②-③-|
⑤⑤口口 |--④-|
④④①口 |⑤-⑥-|
30
④口④口 |--①-|
口②①① |--②-|
口口口口 |--③-|
口③口口 |--④-|
31
⑦②⑦② |--①-|
口④口④ |②-③-|
⑥③⑥③ |④-⑤-|
①⑤①⑤ |⑥-⑦-|
32
⑤⑤口② |--①-|
④④口② |--②-|
口①口① |--③-|
口口③③ |④-⑤-|
33
⑥⑥③口 |--①-|
口口②口 |②-③-|
口口⑤⑤ |--④-|
口①④④ |⑤-⑥-|
34
口口口口 |--①-|
①①②口 |--②-|
口口口口
口口口口

口口口口
口④口④
口口口口 |--③-|
口口③口 |--④-|
35
②口④④ |--①-|
③口⑤口 |②-③-|
⑥⑥⑥口 |④-⑤-|
⑦①⑦① |⑥-⑦-|
36
口口③③ |----|
口口②② |----|
口口口口 |--①-|
①①口口 |②-③-|
37
口③⑥⑥ |--①-|
口②口口 |②-③-|
⑤⑤口口 |--④-|
④④①口 |⑤-⑥-|
38
口口口口 |--①-|
口②①① |--②-|
口口口口
口口口口

④口④口
④口④口
口口口口 |--③-|
口③口口 |--④-|
39
⑦②⑦② |--①-|
口④口④ |②-③-|
⑥③⑥③ |④-⑤-|
①⑤①⑤ |⑥-⑦-|
40
⑤⑤口② |--①-|
④④口② |--②-|
口①口① |--③-|
口口③③ |④-⑤-|
41
⑥⑥③口 |--①-|
口口②口 |②-③-|
口口⑤⑤ |--④-|
口①④④ |⑤-⑥-|
42
口口口口 |--①-|
①①②口 |--②-|
口口口口
口口口口

口④口④
口④口④
口口口口 |--③-|
口口③口 |--④-|
43
②⑦②⑦ |--①-|
④⑦④⑦ |②-③-|
⑤③⑤③ |④-⑤-|
⑥①⑥① |⑥-⑦-|
44
口①①口 |----|
①口口① |----|
口口口口 |----|
口口口口 |--①-|
45
口口口口 |--①-|
口①①口 |--②-|
口①①口
②口口②

口④④口
口④④口
口口口口 |--③-|
口③③口 |--④-|
46
口⑥⑦口 |--①-|
口口口口 |②-③-|
口口②① |④-⑤-|
⑤④③口 |--⑥⑦|
47
口口口① |①-②-|
口②⑤口 |③-④-|
⑦口③口 |⑤-⑥-|
⑥④口口 |⑦---|
48
③①⑬② |①-②-|
④⑤⑫⑪ |③④⑤⑥|
口⑥⑦⑩ |⑦⑧⑨⑩|
口口⑧⑨ |⑪⑫⑬-|
49
①口口② |①-②-|
口⑦⑧口 |③-④-|
口⑤⑥口 |⑤-⑥-|
③口口④ |⑦-⑧-|
50
口①口口 |①---|
①③口④ |②---|
③②④口 |③---|
②口口口 |④---|
51
口口口① |①-②-|
口③①口 |-③--|
口口口口
口口②口

口口口⑦
口口口⑥
口口口⑤ |④-⑤-|
口④口口 |⑥-⑦-|
52
⑤口④⑤ |①---|
口③口口 |②---|
⑤口口⑤ |③-④-|
①②①② |--⑤-|
53
口口口口 |----|
①口口① |----|
口口口口 |----|
口①①口 |--①-|
54
口口③③ |----|
口口②② |----|
口口口口 |--①-|
①①口口 |②-③-|
55
口③⑥⑥ |--①-|
口②口口 |②-③-|
⑤⑤口口 |--④-|
④④①口 |⑤-⑥-|
56
④口④口 |--①-|
口②①① |--②-|
口口口口 |--③-|
口③口口 |--④-|
57
⑦②⑦② |--①-|
口④口④ |②-③-|
⑥③⑥③ |④-⑤-|
①⑤①⑤ |⑥-⑦-|
58
⑤⑤口② |--①-|
④④口② |--②-|
口①口① |--③-|
口口③③ |④-⑤-|
59
⑥⑥③口 |--①-|
口口②口 |②-③-|
口口⑤⑤ |--④-|
口①④④ |⑤-⑥-|
60
口口口口 |--①-|
①①②口 |--②-|
口口口口
口口口口

口口口口
口④口④
口口口口 |--③-|
口口③口 |--④-|
61
②口④④ |--①-|
③口⑤口 |②-③-|
⑥⑥⑥口 |④-⑤-|
⑦①⑦① |⑥-⑦-|
62
③口③③ |----|
②口②② |----|
口口口口 |--①-|
①①口① |②-③-|
63
⑥③⑥⑥ |--①-|
口②口口 |②-③-|
⑤⑤口⑤ |--④-|
④④①④ |⑤-⑥-|
64
口口口口 |--①-|
①②①① |--②-|
口口口口
口口口口

④口④口
④口④口
口口口口 |--③-|
口③口口 |--④-|
65
⑦②⑦② |--①-|
口④口④ |②-③-|
⑥③⑥③ |④-⑤-|
①⑤①⑤ |⑥-⑦-|
66
⑤⑤口⑤ |--①-|
④④②④ |--②-|
口①口① |--③-|
③②③③ |④-⑤-|
67
⑥⑥③⑥ |--①-|
口口②口 |②-③-|
⑤口⑤⑤ |--④-|
④①④④ |⑤-⑥-|
68
口口口口 |--①-|
①①②① |--②-|
口口口口
口口口口

口④口④
口④口④
口口口口 |--③-|
口口③口 |--④-|
69
②⑦②⑦ |--①-|
④⑦④⑦ |②-③-|
⑤③⑤③ |④-⑤-|
⑥①⑥① |⑥-⑦-|
70
口口口口 |--①-|
口口口口 |②-③-|
③②⑤⑥ |④-⑤-|
⑦①④⑦ |⑥-⑦-|
71
口口口口 |--①-|
③②⑤⑥ |②-③-|
口①④口 |④-⑤-|
⑦口口⑦ |⑥-⑦-|
72
③②⑤⑥ |--①-|
口①④口 |②-③-|
口⑦⑦口 |④-⑤-|
口⑦⑦口 |⑥-⑦-|
73
⑤⑤⑤⑤ |--①-|
①④④② |--②-|
①口口② |--③-|
②③③① |④-⑤-|


不确定度: 0

最終更新:2012年11月10日 15:19