お茶づけ☆パラダイス
A応P

BASIC

Level: 3
BPM: 160
Notes: 205

1
①口口② |----|
口口口口 |----|
口口口口 |①---②-|
口口口口 |----|
2
口口口口 |①---|
口①口口 |----|
口口口口 |----|
口口口口 |----|
3
口口口口 |①---|
口口①口 |----|
口口口口 |----|
口口口口 |----|
4
口口口口 |①---|
口口②口 |----|
口口①口 |②---|
口口口口 |----|
5
口口①口 |①---|
口口口口 |----|
口口口口 |----|
口口口口 |----|
6
①口口口 |①---|
②口口口 |----|
口口口口 |②---|
口口口口 |----|
7
口口口口 |①---|
口口口口 |----|
①口口口 |----|
口口口口 |----|
8
口①口口 |①---|
口②口口 |----|
口口口口 |②---|
口口口口 |----|
9
口口口口 |①---|
口口口口 |----|
口①口口 |----|
口口口口 |----|
10
口口①口 |①---|
口口②口 |----|
口口口口 |②---|
口口口口 |----|
11
口口口口 |①---|
口口口口 |----|
口口①口 |----|
口口口口 |----|
12
口口口① |①---|
口口口② |----|
口口口口 |②---|
口口口口 |----|
13
口口口口 |①---|
口口口口 |----|
口口口① |----|
口口口口 |----|
14
口口口口 |①---|
口①②口 |----|
口口口口 |②---|
口口口口 |----|
15
口口口口 |①---|
口口口口 |----|
口①②口 |②---|
口口口口 |----|
16
口口口口 |①---|
口①②口 |----|
口口口口 |②---|
口口口口 |----|
17
口口口口 |①---|
口口口口 |----|
口①②口 |②---|
口口口口 |----|
18
口口口口 |①---|
口①②口 |----|
口口口口 |②---|
口口口口 |----|
19
口口口口 |①---|
口口口口 |----|
口①②口 |②---|
口口口口 |----|
20
口口口口 |①---|
①口口① |----|
口口口口 |----|
口口口口 |----|
21
口口口口 |①---|
口口口口 |----|
口①②口 |②---|
口口口口 |----|
22
口口口口 |①---|
①②③④ |②---|
口口口口 |③---|
口口口口 |④---|
23
口口口口 |①---|
口口口口 |②---|
④③②① |③---|
口口口口 |④---|
24
口口口口 |①---|
口口口口 |②---|
口口口口 |③---|
①②③④ |④---|
25
口口口口 |①---|
②①①② |----|
口口口口 |②---|
口口口口 |----|
26
口①②口 |①---|
口③④口 |②---|
口口口口 |③---|
口口口口 |④---|
27
口口口口 |①---|
口口口口 |----|
口①口口 |----|
口口口口 |----|
28
①口口① |①---|
②口口② |----|
口口口口 |②---|
口口口口 |----|
29
口口口口 |①---|
口口口口 |----|
①③③① |②---|
口②②口 |③---|
30
口口口口 |①---|
①②③④ |②---|
口口口口 |③---|
口口口口 |④---|
31
口口口口 |①---|
口口口口 |②---|
④③②① |③---|
口口口口 |④---|
32
口口口口 |①---|
口口口口 |②---|
口口口口 |③---|
①②③④ |④---|
33
口口口口 |①---|
口①①口 |----|
口②②口 |②---|
口口口口 |----|
34
口①②口 |①---|
口③④口 |②---|
口口口口 |③---|
口口口口 |④---|
35
口口口口 |①---|
口口口口 |----|
口①口口 |----|
口口口口 |----|
36
①口口① |①---|
②口口② |----|
口口口口 |②---|
口口口口 |----|
37
口口口口 |①---|
口口口口 |----|
①口口① |②---|
②口口② |----|
38
口口口口 |①---|
①①①① |②---|
口②口口
口口口口

口口口口
④口口④
口口③口 |③---|
口口口口 |④---|
39
①口口口 |①---|
口口口口 |----|
口口口口 |----|
口口口口 |----|
40
口口口① |①---|
口口口口 |----|
口口口口 |----|
口口口口 |----|
41
口口口口 |①---|
①口口口 |----|
口口口口 |----|
口口口口 |----|
42
口口口口 |①---|
口口口① |----|
口口口口 |----|
口口口口 |----|
43
口口口口 |①---|
口口口口 |----|
①口口口 |----|
口口口口 |----|
44
口口口口 |①---|
口口口口 |----|
口口口① |----|
口口口口 |----|
45
口口口口 |①---|
口口口口 |----|
口口口口 |----|
①口口口 |----|
46
口口口口 |①---|
口口口口 |----|
口口口口 |----|
口口口① |----|
47
口口口口 |①---|
口①②口 |----|
口口口口 |②---|
口口口口 |----|
48
口口口口 |①---|
口口口口 |----|
口①②口 |②---|
口口口口 |----|
49
口口口口 |①---|
口①②口 |----|
口口口口 |②---|
口口口口 |----|
50
口口口口 |①---|
口口口口 |----|
口①②口 |②---|
口口口口 |----|
51
口口口口 |①---|
口①②口 |----|
口口口口 |②---|
口口口口 |----|
52
口口口口 |①---|
口口口口 |----|
口①②口 |②---|
口口口口 |----|
53
口口口口 |①---|
①口口① |----|
口口口口 |----|
口口口口 |----|
54
口口口口 |①---|
口口口口 |----|
口①②口 |②---|
口口口口 |----|
55
口口口口 |①---|
④③②① |②---|
口口口口 |③---|
口口口口 |④---|
56
口口口口 |①---|
口口口口 |②---|
①②③④ |③---|
口口口口 |④---|
57
口口口口 |①---|
口口口口 |②---|
口口口口 |③---|
④③②① |④---|
58
口口口口 |①---|
②①①② |----|
口口口口 |②---|
口口口口 |----|
59
口①②口 |①---|
口③④口 |②---|
口口口口 |③---|
口口口口 |④---|
60
口口口口 |①---|
口口口口 |----|
口①口口 |----|
口口口口 |----|
61
①口口① |①---|
②口口② |----|
口口口口 |②---|
口口口口 |----|
62
口口口口 |①---|
口口口口 |----|
①③③① |②---|
口②②口 |③---|
63
口口口口 |①---|
④③②① |②---|
口口口口 |③---|
口口口口 |④---|
64
口口口口 |①---|
口口口口 |②---|
①②③④ |③---|
口口口口 |④---|
65
口口口口 |①---|
口口口口 |②---|
口口口口 |③---|
④③②① |④---|
66
口口口口 |①---|
口①①口 |----|
口②②口 |②---|
口口口口 |----|
67
口①②口 |①---|
口③④口 |②---|
口口口口 |③---|
口口口口 |④---|
68
口口口口 |①---|
口口口口 |----|
口①口口 |----|
口口口口 |----|
69
①口口① |①---|
②口口② |----|
口口口口 |②---|
口口口口 |----|
70
口口口口 |①---|
口口口口 |----|
①口口① |②---|
②口口② |----|
71
口口口口 |①---|
①①①① |②---|
④②③口 |③---|
口口口口 |④---|
72
口口口口 |①---|
口口口口 |②---|
④②③① |③---|
口口口口 |④---|
73
口口口口 |①---|
口②②口 |②---|
口口口① |----|
口口口口 |----|
74
口口口口 |----|
口口口口 |----|
口口口口 |----|
口口口口 |----|
75
口口口口 |①-②-|
①口口① |----|
②口口② |----|
口口口口 |----|

不確定度: 0

最終更新:2017年04月06日 23:24