お茶づけ☆パラダイス
A応P

ADVANCED

Level: 6
BPM: 160
Notes: 430

1
①口口② |----|
口口口口 |----|
口口口口 |①---②-|
口口口口 |----|
2
口口口口 |①-②-|
口口口口 |----|
口①②口 |----|
口口口口 |----|
3
口口口口 |①-②-|
口口口口 |----|
口①②口 |----|
口口口口 |----|
4
口口口口 |①-②-|
口③④口 |----|
口①②口 |③-④-|
口口口口 |----|
5
①口口① |①---|
口口口口 |----|
口口口口 |----|
口口口口 |----|
6
口口口口 |--①-|
③⑤④口 |②-③-|
①⑦⑥② |④-⑤-|
口口口口 |⑥-⑦-|
7
口口口口 |----|
口口口口 |----|
口口口口 |----|
口口口口 |----|
8
口口口口 |--①-|
口④⑤③ |②-③-|
②⑥⑦① |④-⑤-|
口口口口 |⑥-⑦-|
9
口口口口 |----|
口口口口 |----|
口口口口 |----|
口口口口 |----|
10
口口口口 |--①-|
③⑤④口 |②-③-|
①⑦⑥② |④-⑤-|
口口口口 |⑥-⑦-|
11
口口口口 |----|
口口口口 |----|
口口口口 |----|
口口口口 |----|
12
口⑥⑦口 |--①-|
口④⑤③ |②-③-|
②口口① |④-⑤-|
口口口口 |⑥-⑦-|
13
口口口口 |----|
①口口口 |----|
口口口口 |----|
口口口口 |--①-|
14
口口口口 |①-②-|
口口口③ |--③-|
①⑥口④ |④-⑤-|
②口口⑤ |--⑥-|
15
口口口④ |①-②-|
⑤②③口 |③-④-|
口口①口 |----|
口口口口 |--⑤-|
16
口口口口 |①-②-|
口⑥口③ |--③-|
①口口④ |④-⑤-|
②口口⑤ |--⑥-|
17
口口口④ |①-②-|
⑤口①口 |③-④-|
口②③口 |----|
口口口口 |--⑤-|
18
口口口口 |①-②-|
口口口③ |--③-|
①⑥口④ |④-⑤-|
②口口⑤ |--⑥-|
19
④口口④ |①-②-|
口②③口 |③-④-|
口口①口
口口口口

口口口口
口口口口
口⑤⑤口 |----|
口口口口 |--⑤-|
20
②①①③ |①---|
④口口⑤ |--②-|
⑥口口口 |③-④-|
口口口口 |⑤-⑥-|
21
口口口口 |①-②-|
口口口口 |③-④-|
口③①口 |----|
口④②口 |----|
22
口口口口 |①---|
口①①口 |②-③-|
口口口口
口②③口

口口⑥口
口⑤口口
口口口口 |④---|
口口口④ |⑤-⑥-|
23
①口口① |①---|
口口口口 |②-③-|
口③②口
口口口口

⑤⑤口口
口口口口
④口口口 |④---|
口口口口 |⑤---|
24
④④②② |①---|
口口口口 |②---|
口口口口 |③---|
①①③③ |④---|
25
②口口② |①---|
口口口口 |----|
②①①② |②---|
口口口口 |----|
26
口②③口 |①---|
①④⑤① |②-③-|
口⑥⑦口 |④-⑤-|
口口口口 |⑥-⑦-|
27
口口口口 |①---|
①②口① |----|
口②口口 |----|
口口口口 |--②-|
28
②口口③ |①---|
②④①③ |--②-|
口口①口 |③---|
口口口口 |--④-|
29
⑥⑥⑥⑥ |①-②-|
口口①口 |③-④-|
⑤②③⑤ |⑤---|
口④口口 |⑥---|
30
口口口口 |①---|
口①①口 |②-③-|
口口口口
口②③口

口口⑥口
口⑤口口
口口口口 |④---|
口口口④ |⑤-⑥-|
31
①口口① |①---|
口口口口 |②-③-|
口③②口
口口口口

⑤⑤口口
口口口口
④口口口 |④---|
口口口口 |⑤---|
32
④④②② |①---|
口口口口 |②---|
口口口口 |③---|
①①③③ |④---|
33
②口口② |①---|
口口口口 |----|
②①①② |②---|
口口口口 |----|
34
口②③口 |①---|
①④⑤① |②-③-|
口⑥⑦口 |④-⑤-|
口口口口 |⑥-⑦-|
35
口口口口 |①---|
口②口口 |----|
①②口① |----|
口口口口 |--②-|
36
②口口③ |①---|
②④①③ |--②-|
口口①口 |③---|
口口口口 |--④-|
37
口口口口 |①-②-|
⑦口①⑧ |③-④-|
⑤②③⑥ |⑤-⑥-|
口④口口 |⑦-⑧-|
38
①①①① |①---|
口②⑤⑤ |②-③-|
⑤⑤③口 |④---|
口④口口 |⑤---|
39
口口口口 |----|
口①②口 |①---|
口口口口 |②---|
口口口口 |----|
40
口口口口 |①---|
①②③④ |②---|
口口口口 |③---|
口口口口 |④---|
41
口口口口 |①---|
②③④口 |②---|
口①①口 |③---|
口口口口 |④---|
42
口口口口 |①---|
口口口① |②---|
③②②③ |③---|
口口口口 |----|
43
口①②口 |①---|
口③④口 |②---|
口口口口 |③---|
口口口口 |④---|
44
③口口③ |①---|
口口口口 |②---|
口①②口 |③---|
口口口口 |----|
45
口口口口 |①---|
①口口① |----|
②口口② |②---|
口口口口 |----|
46
口口口口 |①---|
口口口② |----|
口口口口 |----|
①口口① |--②-|
47
口口口口 |①-②-|
③口口口 |--③-|
④⑥口① |④-⑤-|
⑤口口② |--⑥-|
48
④口口口 |①-②-|
口②③⑤ |③-④-|
口口①口 |----|
口口口口 |--⑤-|
49
口口口口 |①-②-|
③⑥口口 |--③-|
④口口① |④-⑤-|
⑤口口② |--⑥-|
50
④口口口 |①-②-|
口口①⑤ |③-④-|
口②③口 |----|
口口口口 |--⑤-|
51
口口口口 |①-②-|
③口口口 |--③-|
④⑥口① |④-⑤-|
⑤口口② |--⑥-|
52
④口口④ |①-②-|
口②③口 |③-④-|
口口①口
口口口口

口口口口
口口口口
口⑤⑤口 |----|
口口口口 |--⑤-|
53
②①①③ |①---|
④口口⑤ |--②-|
⑥口口口 |③-④-|
口口口口 |⑤-⑥-|
54
口口口口 |①-②-|
口口口口 |③-④-|
口③①口 |----|
口④②口 |----|
55
口口口口 |①---|
口①①口 |②-③-|
口口口口
口②③口

口口⑥口
口⑤口口
口口口口 |④---|
口口口④ |⑤-⑥-|
56
①口口① |①---|
口口口口 |②-③-|
口③②口
口口口口

⑤⑤口口
口口口口
④口口口 |④---|
口口口口 |⑤---|
57
④④②② |①---|
口口口口 |②---|
口口口口 |③---|
①①③③ |④---|
58
②口口② |①---|
口口口口 |----|
②①①② |②---|
口口口口 |----|
59
口②③口 |①---|
①④⑤① |②-③-|
口⑥⑦口 |④-⑤-|
口口口口 |⑥-⑦-|
60
口口口口 |①---|
①②口① |----|
口②口口 |----|
口口口口 |--②-|
61
②口口③ |①---|
②④①③ |--②-|
口口①口 |③---|
口口口口 |--④-|
62
⑥⑥⑥⑥ |①-②-|
口口①口 |③-④-|
⑤②③⑤ |⑤---|
口④口口 |⑥---|
63
口口⑥口 |①---|
①⑤口① |②-③-|
口口口口 |④---|
口②③④ |⑤-⑥-|
64
①口口① |①---|
口口口口 |②-③-|
口③②口
口口口口

⑤⑤口口
口口口口
④口口口 |④---|
口口口口 |⑤---|
65
④④②② |①---|
口口口口 |②---|
口口口口 |③---|
①①③③ |④---|
66
②口口② |①---|
口口口口 |----|
②①①② |②---|
口口口口 |----|
67
口②③口 |①---|
①④⑤① |②-③-|
口⑥⑦口 |④-⑤-|
口口口口 |⑥-⑦-|
68
口口口口 |①---|
口②口口 |----|
①②口① |----|
口口口口 |--②-|
69
②口口③ |①---|
②④①③ |--②-|
口口①口 |③---|
口口口口 |--④-|
70
口口口口 |①-②-|
⑦口①⑧ |③-④-|
⑤②③⑥ |⑤-⑥-|
口④口口 |⑦-⑧-|
71
①①①① |①---|
口②⑤口 |②-③-|
口⑥③口 |④---|
口④口口 |⑤-⑥-|
72
口口口口 |①---|
口②⑤口 |②-③-|
口⑥③口 |④---|
口④①口 |⑤-⑥-|
73
口口口口 |①---|
②②口口 |②---|
口口②② |----|
口口①口 |----|
74
口口口口 |--①-|
③⑤④口 |②-③-|
①⑦⑥② |④-⑤-|
口口口口 |⑥-⑦-|
75
①口口① |①-②-|
②口口② |----|
口口口口 |----|
口口口口 |----|

不確定度: 0

最終更新:2017年04月06日 23:24