お茶づけ☆パラダイス
A応P
EXTREME
Level: 8
BPM: 160
Notes: 502
1
①口口② |----|
口口口口 |----|
口口口口 |①---②-|
口口口口 |----|
2
口口口口 |①-②-|
口口口口 |----|
口①①口 |----|
口②②口 |----|
3
口口口口 |①-②-|
口口口口 |----|
口①①口 |----|
口②②口 |----|
4
口口口口 |①-②-|
④口口④ |----|
③①①③ |③-④-|
口②②口 |----|
5
口口口口 |①---|
口口口口 |----|
口口口口 |----|
口①①口 |----|
6
⑦⑦口口 |--①-|
口①⑥口 |②-③-|
口⑤②口 |④-⑤-|
口③④口 |⑥-⑦-|
7
口口口口 |----|
口口口口 |----|
口口口口 |----|
口口口口 |----|
8
口口⑦⑦ |--①-|
口⑥口① |②-③-|
②口⑤口 |④-⑤-|
口④口③ |⑥-⑦-|
9
口口口口 |----|
①口口口 |----|
②口口口 |①-②-|
③口口口 |③---|
10
⑦⑦口口 |--①-|
口①⑥口 |②-③-|
口⑤②口 |④-⑤-|
口③④口 |⑥-⑦-|
11
口口口口 |----|
口口口口 |----|
口口口口 |----|
口口口口 |----|
12
⑦口口⑦ |--①-|
口⑥口① |②-③-|
②口⑤口 |④-⑤-|
口④口③ |⑥-⑦-|
13
口口口口 |--①-|
口口口⑤ |②-③-|
口①③口 |④---|
口②④口 |--⑤-|
14
口口口口 |①-②-|
③口口口 |--③-|
④⑥口① |④-⑤-|
⑤口口② |--⑥-|
15
④④口口 |①-②-|
口②①⑤ |③-④-|
口口③口 |----|
口口口口 |--⑤-|
16
口口口口 |①-②-|
③口口口 |--③-|
④口口① |④-⑤-|
⑤口⑥② |--⑥-|
17
口口④④ |①-②-|
⑤口口口 |③-④-|
口①②口 |----|
口③口口 |--⑤-|
18
口口口⑥ |①-②-|
口口口③ |--③-|
①口口④ |④-⑤-|
②口口⑤ |--⑥-|
19
④④口口 |①-②-|
口口①口 |③-④-|
②口口口
口③口口
口口口口
口口⑤口
口⑤口口 |----|
口口口口 |--⑤-|
20
口口①① |①---|
②口口① |--②-|
口口口口
口口口口
⑥口口口
口口口⑤
口口口③ |③-④-|
④口口口 |⑤-⑥-|
21
口口口口 |①-②-|
口③②口 |③-④-|
口①④口 |----|
口口口口 |----|
22
④④⑤⑤ |①--②|
口口口口 |③-④-|
口②③口 |⑤---|
①⑥⑦① |⑥-⑦-|
23
⑥⑥口口 |①--②|
⑥口④④ |③-④-|
口②③口 |⑤---|
⑤⑤口① |⑥---|
24
口口①③ |①---|
口②口口 |②---|
①口②④ |③---|
③口④口 |④---|
25
口口②口 |①---|
口①①② |----|
②口口口 |②---|
口②口口 |----|
26
②口口口 |①---|
口①①口 |②-③-|
③口口口
口口口口
口口口⑦
口口⑥口
口口口⑤ |④-⑤-|
口口④口 |⑥-⑦-|
27
口口口口 |①---|
口口口口 |----|
口①①口
口口口口
口口口口
口口②口
口②口口 |----|
口口口口 |--②-|
28
口口口口 |①---|
③①口② |--②-|
②④①③ |③---|
口口口口 |--④-|
29
口⑤⑥口 |①-②-|
⑤⑤⑥⑥ |③-④-|
②口①③ |⑤---|
口④④口 |⑥---|
30
④④⑤⑤ |①--②|
口口口口 |③-④-|
口②③口 |⑤---|
①⑦⑥① |⑥-⑦-|
31
④④⑥口 |①--②|
口口口⑥ |③-④-|
口②③口 |⑤---|
①口⑤⑤ |⑥---|
32
口口口① |①---|
口②①口 |②---|
④③②口 |③---|
③④口口 |④---|
33
口②口口 |①---|
②①①口 |----|
口口口② |②---|
口口②口 |----|
34
口④口② |①---|
⑤①①口 |②-③-|
口⑥口③ |④-⑤-|
⑦口口口 |⑥-⑦-|
35
口口口口 |①---|
口口②口 |----|
口②口口 |----|
口①①口 |--②-|
36
口口口口 |①---|
③①口② |--②-|
②④①③ |③---|
口口口口 |--④-|
37
口⑤⑥口 |①-②-|
⑤⑦⑧⑥ |③-④-|
②口①③ |⑤-⑥-|
口④④口 |⑦-⑧-|
38
①⑤口① |①---|
②⑤口④ |②-③-|
①③⑤① |④---|
口口⑤口 |⑤---|
39
①③口口 |----|
口口口口 |①---|
②口口口 |②---|
口口口口 |--③-|
40
口口①口 |①-②-|
⑧②③⑦ |③-④-|
⑥④口⑤ |⑤-⑥-|
口口口口 |⑦-⑧-|
41
⑥①①⑥ |①---|
口④⑤口 |②-③-|
口②③口 |④-⑤-|
口口口口 |--⑥-|
42
口③③口 |--①-|
口口口口 |②---|
口①②口 |③---|
口口口口 |----|
43
口口口⑦ |--①-|
①②③口 |②-③-|
口⑤④⑥ |④-⑤-|
口口口口 |⑥---⑦-|
44
口口口口 |----|
口①口口 |---①|
口口②口 |②---|
口口口口 |----|
45
①②③④ |①-②-|
口⑤口口 |③-④-|
口口口口 |⑤---|
口⑥口口 |--⑥-|
46
口口口口 |①---|
口口口② |----|
口口口口 |----|
口口①口 |--②-|
47
口口口口 |①-②-|
③口口口 |--③-|
④⑥口① |④-⑤-|
⑤口口② |--⑥-|
48
口口口④ |①-②-|
④②①⑤ |③-④-|
口口③口 |----|
口口口口 |--⑤-|
49
口口口口 |①-②-|
③口口口 |--③-|
④口口① |④-⑤-|
⑤口⑥② |--⑥-|
50
④口口口 |①-②-|
⑤口口④ |③-④-|
口①②口 |----|
口③口口 |--⑤-|
51
口口口⑥ |①-②-|
口口口③ |--③-|
①口口④ |④-⑤-|
②口口⑤ |--⑥-|
52
④口口口 |①-②-|
口口①④ |③-④-|
②口口口
口③口口
口口口口
口⑤口口
⑤口口口 |----|
口口口口 |--⑤-|
53
②口口③ |①---|
④口①⑤ |--②-|
⑥口口① |③-④-|
口口口口 |⑤-⑥-|
54
口口口口 |①-②-|
口③②口 |③-④-|
口①④口 |----|
口口口口 |----|
55
④口口④ |①--②|
①口口① |③-④-|
⑤②③⑤ |⑤---|
口⑦⑥口 |⑥-⑦-|
56
④⑥口④ |①--②|
⑥⑦口口 |③-④-|
⑤②③⑤ |⑤---|
①口口口 |⑥-⑦-|
57
口口⑧⑦ |①-②-|
⑤⑥①口 |③-④-|
口①②③ |⑤-⑥-|
口口③④ |⑦-⑧-|
58
口②口口 |①---|
②口口口 |----|
口①①② |②---|
口口②口 |----|
59
②口口口 |①---|
口①①口 |②-③-|
③口口口
口口口口
口口口⑦
口口⑥口
口口口⑤ |④-⑤-|
口口④口 |⑥-⑦-|
60
口口口口 |①---|
口口口口 |----|
口①①口
口口口口
口口口口
口口②口
口②口口 |----|
口口口口 |--②-|
61
口口口口 |①---|
③①口② |--②-|
②④①③ |③---|
口口口口 |--④-|
62
口⑤⑥口 |①-②-|
⑤⑤⑥⑥ |③-④-|
②口①③ |⑤---|
口④④口 |⑥---|
63
④口口④ |①--②|
口⑥⑦口 |③-④-|
①②③① |⑤---|
⑤口口⑤ |⑥-⑦-|
64
④⑥口④ |①--②|
⑥⑦口① |③-④-|
口②③口 |⑤---|
⑤口口⑤ |⑥-⑦-|
65
口口口口 |①-②-|
口口口口 |③-④-|
③④②①
口③①口
口口⑤⑦
口口⑥⑤
口口口⑧ |⑤-⑥-|
口口口口 |⑦-⑧-|
66
口口②口 |①---|
口①口② |----|
②口①口 |②---|
口②口口 |----|
67
口④口② |①---|
⑤①①口 |②-③-|
口⑥口③ |④-⑤-|
⑦口口口 |⑥-⑦-|
68
口口口口 |①---|
口口②口 |----|
口②口口 |----|
口①①口 |--②-|
69
口口口口 |①---|
③①口② |--②-|
②④①③ |③---|
口口口口 |--④-|
70
口⑤⑥口 |①-②-|
⑤⑦⑧⑥ |③-④-|
②口①③ |⑤-⑥-|
口④④口 |⑦-⑧-|
71
①口口① |①---|
②口口口 |②-③-|
①③口①
口口口口
口口口口
口口口④
⑤口口口 |④---|
口⑥口口 |⑤-⑥-|
72
②口口口 |①---|
口③口口 |②-③-|
口口口①
口口口口
口口口④
⑤口口⑤
⑥口口⑥ |④---|
口口口口 |⑤-⑥-|
73
口②口口 |①---|
口②口口 |②---|
口口②口 |----|
①口②① |----|
74
⑦口口口 |--①-|
①口口⑥ |②-③-|
⑤口口② |④-⑤-|
③口口④ |⑥-⑦-|
75
口口口口 |①-②-|
口①①口 |----|
口②②口 |----|
口口口口 |----|
不確定度: 0