それは花火のような恋
夏色バーニングラブ☆Prim

ADVANCED

Level: 7
BPM: 182
Notes: 528

1
口口口口 |----|
口口口口 |----|
口口口口 |----|
口口口口 |----|
2
④口口⑤ |①-②-|
口口口口 |③---|
口①②口 |--④-|
口③口口 |--⑤-|
3
口口口口 |----|
②①①② |①---|
口口口口 |②---|
口口口口 |----|
4
④口口⑤ |①-②-|
口口口口 |③---|
口①②口 |--④-|
口③口口 |--⑤-|
5
口口口口 |--①-|
口口口① |--②-|
口③④② |--③-|
口⑤口口 |④-⑤-|
6
口①①口 |①---|
口②③口 |----|
口④⑤口 |②-③-|
口口口口 |④-⑤-|
7
口口口口 |----|
③口口口 |----|
①口口② |--①-|
口口口口 |②-③-|
8
口②③口 |①---|
口④⑤① |----|
口口口口 |②-③-|
口口口口 |④-⑤-|
9
口口口口 |--①-|
③④⑤口 |--②-|
口口①口 |--③-|
口口②口 |④-⑤-|
10
口①①口 |①---|
口口口口 |----|
口②③口 |②-③-|
口④⑤口 |④-⑤-|
11
①④④② |--①-|
③⑤⑤口 |②-③-|
口⑥⑥口 |④--⑤|
口口口口 |--⑥-|
12
口口口③ |①---|
④口口② |②-③-|
①⑤口口 |④--⑤|
口口⑥口 |--⑥-|
13
口⑤口口 |①--②|
④口⑥③ |--③-|
口口②口 |④--⑤|
口①口口 |--⑥-|
14
口口口口 |①--②|
口①口口 |--③-|
口口②口 |----|
口口口③ |----|
15
口口口口 |----|
②口口口 |----|
口①①口 |--①-|
口口口口 |--②-|
16
②口口③ |①---|
④口口① |----|
口口口口 |--②-|
口口口口 |③-④-|
17
口口口口 |①-②-|
口口口① |----|
②⑥⑤口 |③-④-|
口④③口 |⑤-⑥-|
18
口口口② |①---|
口口①③ |②-③-|
口口口口 |----|
口口口口 |----|
19
口口口口 |----|
口口口口 |----|
口口口口 |----|
口口口口 |----|
20
口口口口 |①-②-|
①③⑤⑦ |③-④-|
②④口口 |⑤--⑥|
口口⑥口 |--⑦-|
21
②④口口 |①---|
③口口⑥ |②-③-|
口口⑤① |④--⑤|
口口口口 |--⑥-|
22
口口口① |①--②|
口口②口 |--③-|
口③口口 |----|
口口口口 |----|
23
口口口口 |----|
口口③① |----|
口口口② |--①-|
口口口口 |②-③-|
24
口口口② |①---|
④口口口 |②---|
③口①口 |③-④-|
口⑤口口 |--⑤-|
25
口⑤口口 |----|
口口③① |①-②-|
口口④② |③-④-|
口口口口 |--⑤-|
26
口口口口 |①-②-|
口①口口 |----|
口②口口 |----|
口口口口 |----|
27
口口口口 |----|
口①②口 |----|
口口口口 |----|
口口口口 |①-②-|
28
⑥口口口 |①-②-|
口口口⑦ |③-④-|
⑤①②口 |⑤--⑥|
口③④口 |--⑦-|
29
口③口口 |①---|
口②⑤口 |--②-|
口④口① |③--④|
口口口口 |--⑤-|
30
④口①口 |①--②|
③口口⑥ |--③-|
⑤口②口 |④--⑤|
口口口口 |--⑥-|
31
口口口① |①---|
口口口口 |----|
口口口口 |----|
口口口口 |----|
32
口口口口 |①-②-|
口①②口 |③-④-|
⑦③④⑧ |⑤-⑥-|
口⑤⑥口 |⑦-⑧-|
33
口口口③ |----|
口口口口 |--①-|
口①②④ |②--③|
口口口口 |--④-|
34
口口口口 |①-②-|
口①②口 |③-④-|
口③④口 |----|
口口口口 |----|
35
口口口口 |----|
①口口口 |----|
口口口口 |--①-|
②口口口 |--②-|
36
口⑦口⑥ |①-②-|
口⑤口口 |③-④-|
口③④口 |⑤--⑥|
口①②口 |--⑦-|
37
口口①口 |①---|
口口③口 |--②-|
口⑤②口 |③--④|
口口④口 |--⑤-|
38
口口口④ |①--②|
⑥①口③ |--③-|
口口口⑤ |④--⑤|
口②口口 |--⑥-|
39
①口口口 |①---|
口口口口 |----|
口口口口 |②---|
口②②口 |----|
40
①口口① |①---|
口口口口 |----|
口口口口 |----|
口口口口 |----|
41
④口口口 |----|
口①②⑤ |①-②-|
口③口口 |③--④|
口口口口 |--⑤-|
42
口口口口 |①---|
口口口口 |----|
②③④① |--②-|
口口口口 |③-④-|
43
①口口① |①--②|
③口口③ |--③-|
口口口口 |④---|
④②②④ |----|
44
③口口口 |①--②|
④②口口 |--③-|
口⑤①口 |④--⑤|
口口⑥口 |--⑥-|
45
口口口④ |①--②|
口口⑤③ |--③-|
口⑥②口 |④--⑤|
口①口口 |--⑥-|
46
口②②③ |①--②|
口口口④ |--③④|
口口口⑤ |⑤---|
口①①口 |----|
47
口口口口 |----|
口口口口 |----|
口口口口 |----|
口口口口 |----|
48
口口①② |①-②-|
口⑤③④ |③-④-|
口口⑥口 |⑤--⑥|
口口口⑦ |--⑦-|
49
⑦口①② |①-②-|
口口③④ |③-④-|
口口⑤口 |⑤--⑥|
口⑥口口 |--⑦-|
50
⑥①②⑥ |①-②-|
口③④⑤ |③-④-|
口口口口 |⑤--⑥|
⑦口口⑦ |--⑦-|
51
口①①口 |①---|
口口口口 |----|
口④③② |--②-|
口口口口 |③-④-|
52
①②口⑤ |①-②-|
③④⑥口 |③-④-|
口⑦口口 |⑤--⑥|
口口口口 |--⑦-|
53
口口①口 |①---|
口口⑥口 |②-③-|
口⑤口口 |④--⑤|
④③②口 |--⑥-|
54
口③③口 |①--②|
①④口① |--③-|
口口⑤口 |--④-|
⑥②②⑥ |⑤-⑥-|
55
口口口口 |----|
①②③口 |----|
口口口口 |--①-|
口口口口 |②-③-|
56
⑥口口⑥ |①-②-|
口口口口 |③-④-|
④③②① |⑤--⑥|
⑦⑤⑤⑦ |--⑦-|
57
⑥口口⑤ |①---|
④①①④ |②-③-|
⑤②口⑥ |④--⑤|
口口③口 |--⑥-|
58
④口③口 |①---|
⑤①①口 |----|
口口②口 |②--③|
口口口口 |--④⑤|
59
口口口口 |①---|
口②③口 |②-③-|
①④⑤口 |④-⑤-|
口⑥⑦口 |⑥-⑦-|
60
②口①① |①---|
口③口口 |②-③-|
口⑤④口 |④-⑤-|
口⑦⑥口 |⑥-⑦-|
61
口④口① |----|
口口②口 |①-②-|
口③口口 |③--④|
口⑤口口 |--⑤-|
62
④口口④ |①---|
①②⑤① |②-③-|
口口③口 |④--⑤|
口⑥口口 |--⑥-|
63
口口口口 |①---|
口口口口 |----|
口口口口 |----|
口口①口 |----|
64
口口口口 |①---|
口①①口 |----|
口①①口
口口口口

口③③口
口口口口
口口④口 |②--③|
口②②口 |--④-|
65
①④④① |①---|
口口②口 |--②-|
口③口口 |③--④|
口⑤⑤口 |--⑤-|
66
①口口口 |①-②-|
口②口口 |----|
口口口口 |----|
口口口口 |----|
67
口④③② |①---|
①①①① |----|
口口口口 |--②-|
口口口口 |③-④-|
68
口口口口 |①-②-|
口②①⑤ |--③-|
⑥口口口 |④--⑤|
口③④口 |--⑥-|
69
②③口④ |①---|
⑤口口口 |--②-|
口①口口 |③--④|
口口口口 |--⑤-|
70
口口口口 |①--②|
口①口② |--③-|
③④口⑤ |④--⑤|
⑥口口口 |--⑥-|
71
②口口② |①---|
③口口③ |----|
④口口④ |--②-|
口①口口 |③-④-|
72
口①①口 |①---|
口口口口 |----|
口口口口 |----|
口口口口 |----|
73
口⑤⑤口 |--①-|
①②③④ |②-③-|
口⑥⑥口 |④--⑤|
口口口口 |--⑥-|
74
②口口② |①--②|
口口口③ |--③-|
口口口口
③①①口

口口口口
④口口口
口⑤⑤口 |④--⑤|
口⑥⑥④ |--⑥-|
75
口①①口 |①---|
②口口口 |----|
③④口口 |--②-|
口口口口 |③-④-|
76
③口口口 |①--②|
④②口口 |--③-|
口⑤①口 |④--⑤|
口口⑥口 |--⑥-|
77
口口口④ |①--②|
口口⑤③ |--③-|
口⑥②口 |④--⑤|
口①口口 |--⑥-|
78
口②②③ |①--②|
口口口④ |--③④|
口口口⑤ |⑤---|
口①①口 |----|
79
口口口口 |----|
口口口口 |----|
口口口口 |----|
口口口口 |----|
80
①②口⑤ |①-②-|
③④⑥口 |③-④-|
口⑦口口 |⑤--⑥|
口口口口 |--⑦-|
81
①②口口 |①-②-|
③④口⑤ |③-④-|
口口⑥口 |⑤--⑥|
口⑦口口 |--⑦-|
82
⑥①②⑥ |①-②-|
口③④口 |③-④-|
口⑤口口 |⑤--⑥|
口⑦⑦口 |--⑦-|
83
口口口口 |①---|
①口口① |----|
②③④口 |--②-|
口口口口 |③-④-|
84
口口①② |①-②-|
⑤口③④ |③-④-|
口⑥口口 |⑤--⑥|
口口⑦口 |--⑦-|
85
口②③口 |①---|
口④口口 |②-③-|
口口⑤口 |④--⑤|
口①口⑥ |--⑥-|
86
①②②① |①--②|
口③③口 |--③-|
口口口口
口口口口

⑥口口⑥
口口口口
口口④口 |--④-|
口⑤口口 |⑤-⑥-|
87
口口口口 |----|
①②③口 |----|
口口口口 |--①-|
口口口口 |②-③-|
88
⑥口口⑥ |①-②-|
口口口口 |③-④-|
④③②① |⑤--⑥|
⑦⑤⑤⑦ |--⑦-|
89
⑥口口⑤ |①---|
④①①④ |②-③-|
⑤②口⑥ |④--⑤|
口③口口 |--⑥-|
90
④口③口 |①---|
⑤①①口 |----|
口口②口 |②--③|
口口口口 |--④⑤|
91
口口口口 |①---|
口②③口 |②-③-|
①④⑤口 |④-⑤-|
口⑥⑦口 |⑥-⑦-|
92
②⑤⑤② |①---|
①口口① |----|
③口口③ |②-③-|
口④④口 |④-⑤-|
93
⑤口口⑤ |--①-|
口①②③ |②-③-|
④⑥⑥④ |④--⑤|
口口口口 |--⑥-|
94
口口口口 |----|
①①①① |①---|
口口口口 |----|
口口口口 |----|

不確定度: 0

最終更新:2017年08月13日 13:52