少年リップルズ
常盤ゆう

BASIC

Level: 4
BPM: 210
Notes: 297

1
口口口口 |----|
口口口口 |----|
口口口口 |----|
口口口口 |----|
2
口口口口 |①---|
①②口口 |----|
口口口口 |--②-|
口口口口 |----|
3
口口口口 |----|
口口①② |①---|
口口口口 |----|
口口口口 |--②-|
4
口口①口 |----|
口口口口 |----|
口口口口 |--①-|
口口口口 |----|
5
口①口口 |----|
口口口口 |①---|
口口口口 |----|
口口口口 |----|
6
口口口口 |①---|
口①①口 |----|
口②②口 |----|
口口口口 |②---|
7
口口口口 |----|
口口口口 |--①-|
①口口① |----|
口口口口 |----|
8
②口口② |①---|
①口口① |----|
口口口口 |----|
口口口口 |②---|
9
口①①口 |----|
口口口口 |----|
口口口口 |①---|
口口口口 |----|
10
口口口口 |①---|
口口口口 |----|
口①①口 |----|
口②②口 |②---|
11
口口口口 |----|
口口口口 |----|
口①①口 |①---|
口口口口 |----|
12
口口口口 |①---|
①②②① |----|
口口口口 |----|
口口口口 |②---|
13
口①②口 |----|
口口口口 |----|
口口口口 |①---|
口口口口 |②---|
14
②③口口 |①---|
口①①口 |②---|
口口口口 |③---|
口口口口 |----|
15
口口口口 |①---|
口③②① |--②-|
口口口口 |----|
口口口口 |③---|
16
口口口口 |----|
口口口口 |①---|
①②口口 |②---|
口口口口 |----|
17
口口口口 |①---|
口口口口 |--②-|
口口口口 |----|
口③②① |③---|
18
口口口口 |----|
口①②口 |①---|
口口口口 |②---|
口口口口 |----|
19
口口口口 |①---|
口口口口 |--②-|
口③②① |----|
口口口口 |③---|
20
①②口口 |----|
口口口口 |①---|
口口口口 |②---|
口口口口 |----|
21
口口口口 |①---|
口③②① |②---|
口口口口 |③---|
口口口口 |----|
22
口①②口 |----|
口口③口 |①---|
口口口口 |②---|
口口口口 |③---|
23
口口口口 |①---|
口①口口 |②---|
②③④口 |③---|
口口口口 |④---|
24
口口口口 |①---|
口②②口 |----|
口口口① |----|
口口口口 |②---|
25
口口口口 |----|
口口口口 |----|
口口②① |①---|
口口口口 |②---|
26
口口口口 |①---|
口②②口 |----|
口①口口 |----|
口口口口 |②---|
27
口口口口 |----|
口口口口 |----|
①②口口 |①---|
口口口口 |②---|
28
口口口口 |①---|
口②②口 |----|
口口①口 |----|
口口口口 |②---|
29
口①①口 |----|
口口口口 |①---|
口口口口 |----|
口口口口 |----|
30
口①②口 |----|
口口③口 |①---|
口口口口 |②---|
口口口口 |③---|
31
口口口口 |①---|
口①口口 |②---|
②③④口 |③---|
口口口口 |④---|
32
口③口口 |①---|
口口②口 |----|
口口口① |②---|
口口口口 |--③-|
33
口口口口 |----|
口口口口 |----|
①②口口 |①---|
口口口口 |②---|
34
口③口口 |①---|
口口②口 |----|
口口①口 |②---|
口口口口 |--③-|
35
口口口口 |----|
口口口口 |----|
①②口口 |①---|
口口口口 |②---|
36
口口口口 |①---|
口②②口 |----|
口口①口 |----|
口口口口 |②---|
37
口①①口 |----|
口口口口 |----|
口口口口 |----|
口口口口 |①---|
38
口口口口 |①---|
②口口① |--②-|
③口口口 |----|
口口口口 |--③-|
39
口口口口 |--①-|
口口口口 |--②-|
口口②口 |--③-|
口①口③ |----|
40
口口口口 |①---|
②口口① |--②-|
口口口口 |----|
口口口口 |----|
41
口口口口 |①---|
口口口口 |②---|
①口③口 |③---|
口②口④ |④---|
42
口口口口 |①---|
②口口① |--②-|
口口口口 |----|
口口口口 |----|
43
口口口口 |①---|
口口口口 |②---|
口②口④ |③---|
①口③口 |④---|
44
口②②口 |①---|
口①①口 |----|
口口口口 |--②-|
口口口口 |----|
45
口口口口 |----|
①②口口 |----|
口口口口 |①---|
口口口口 |②---|
46
口口口口 |①---|
口口①口 |②---|
口口②口 |③---|
口③④口 |④---|
47
③口口③ |①---|
口②②口 |----|
口口口口 |②---|
口口口① |--③-|
48
口口口口 |----|
口口口口 |----|
口①②口 |①---|
口口口口 |②---|
49
口口口口 |①---|
②③口口 |----|
口口口① |②---|
口口口口 |③---|
50
口口口口 |①---|
口口①口 |②---|
口口②口 |③---|
口③④口 |④---|
51
口口口口 |①---|
口④④口 |②---|
口③②口 |③---|
口口口① |--④-|
52
口口②口 |----|
口口口口 |----|
口口①口 |①---|
口口口口 |②---|
53
②①口口 |①---|
口③口口 |②---|
口④口口 |③---|
口口口口 |④---|
54
口口口口 |①---|
口口口口 |----|
口口口口 |----|
口①口口 |----|
55
口口口口 |----|
口口口口 |----|
口口①口 |----|
口口口口 |--①-|
56
口口口口 |----|
口①口口 |①---|
口②口口 |②---|
口口③口 |--③-|
57
口口③口 |--①-|
口口口② |--②-|
口口口① |--③-|
口口口口 |----|
58
口口口口 |①---|
口②③④ |--②-|
口①①口 |--③-|
口口口口 |--④-|
59
口口口口 |----|
口口口口 |----|
口口口口 |----|
口口口口 |----|
60
口口①口 |①---|
②③④口 |②---|
口口口口 |③---|
口口口口 |④---|
61
口口口口 |①---|
口口口口 |②---|
口②①口 |③---|
④③口口 |④---|
62
口①口口 |①---|
口④③② |②---|
口口口口 |③---|
口口口口 |④---|
63
口口口口 |①---|
口口口口 |②---|
口①②口 |③---|
口口③④ |④---|
64
口①口口 |①---|
口②③口 |②---|
口④口口 |③---|
口口口口 |④---|
65
口口口口 |①---|
口口口口 |②---|
口口①口 |③---|
④③②口 |④---|
66
口口口口 |①---|
口②②口 |----|
口①①口 |----|
口口口口 |②---|
67
口口口口 |----|
口口口口 |----|
①②口口 |①---|
口口口口 |②---|
68
口口口口 |①---|
②③④口 |②---|
口口①口 |③---|
口口口口 |④---|
69
口口口口 |①---|
口②③① |----|
口口口口 |②---|
口口口口 |③---|
70
口④③② |①---|
口口口① |②---|
口口口口 |③---|
口口口口 |④---|
71
①口口口 |①---|
口口口口 |----|
②③口口 |②---|
口口口口 |③---|
72
口①②③ |①---|
口口口④ |②---|
口口口口 |③---|
口口口口 |④---|
73
口口口口 |①---|
口口口口 |②---|
口口口① |③---|
口④③② |④---|
74
口口口口 |①---|
口②②口 |----|
口①①口 |----|
口口口口 |②---|
75
①①口口 |----|
口口口口 |----|
口口口口 |①---|
口口口口 |----|
76
口口①口 |①---|
②③④口 |②---|
口口口口 |③---|
口口口口 |④---|
77
口口口口 |①---|
口口口口 |②---|
口②①口 |③---|
④③口口 |④---|
78
口①口口 |①---|
口④③② |②---|
口口口口 |③---|
口口口口 |④---|
79
口口口④ |①---|
口口口③ |②---|
口①②口 |③---|
口口口口 |④---|
80
口①口口 |①---|
口②③口 |②---|
口④口口 |③---|
口口口口 |④---|
81
口口口口 |①---|
口口口口 |②---|
口口①口 |③---|
④③②口 |④---|
82
口口口口 |①---|
②②②② |----|
口①①口 |----|
口口口口 |②---|
83
口口口口 |----|
口口口口 |----|
口口①口 |----|
口口口口 |①---|
84
②③口口 |①---|
口口①口 |----|
口口口口 |②---|
口口口口 |③---|
85
口口①口 |①---|
口口②③ |--②-|
口口口口 |----|
口口口口 |③---|
86
口口口口 |①---|
口口口口 |②---|
口口口口 |③---|
④③②① |④---|
87
口③④口 |①---|
②口口口 |②---|
口①口口 |③---|
口口口口 |④---|
88
口口口口 |①---|
口①①口 |----|
口②②口 |----|
口口口口 |②---|
89
口口口口 |----|
口口口口 |----|
口口①口 |----|
口口口口 |①---|
90
口①口口 |①---|
口口口口 |----|
口口口口 |----|
口口②口 |②---|
91
口④④口 |①---|
口③②口 |②---|
口口①口 |③---|
口口口口 |④---|
92
口口口口 |①---|
口口③③ |--②-|
②②①① |----|
口口口口 |③---|
93
口③②口 |--①-|
①①口口 |----|
口口口口 |②---|
口口口口 |③---|
94
口口口口 |①---|
②②①① |--②-|
口口③③ |----|
口口口口 |③---|
95
口口口口 |--①-|
口口口口 |----|
①①口口 |②---|
口②③口 |③---|


不确定度: 0

最終更新:2012年11月10日 15:19