それは花火のような恋
夏色バーニングラブ☆Prim

EXTREME

Level: 9
BPM: 182
Notes: 840

1
口口口口 |----|
口口口口 |----|
口口口口 |----|
口口口口 |----|
2
口①②口 |①②③④|
口③④口 |⑤---|
口⑤口口
口口口口

⑧⑧口口
口口口口
口口口⑦ |--⑥-|
口⑥口口 |⑦-⑧-|
3
④口口口 |--①-|
口③①口 |②---|
②③②口 |③---|
②口②口 |④---|
4
口口①② |①②③④|
口口③④ |⑤---|
口⑥⑤⑧ |--⑥-|
口⑦⑧口 |⑦-⑧-|
5
④⑤①② |--①-|
⑥⑦②① |--②-|
口③③口 |--③-|
口口口口 |④⑤⑥⑦|
6
口口口② |①---|
口口⑤口 |②---|
①口口④ |③-④-|
口⑥⑥③ |⑤-⑥-|
7
①口口⑤ |--①-|
口口口④ |--②-|
口口③口 |--③-|
②口口口 |④-⑤-|
8
⑥⑤口⑥ |①---|
口④②口 |②---|
③口口口 |③-④-|
口①①口 |⑤-⑥-|
9
口口口口 |--①-|
①口③① |--②-|
②④口② |--③-|
口⑤口口 |④-⑤-|
10
①③口③ |①---|
①①③口 |②---|
④④②② |③---|
④④②② |④---|
11
③口口口 |①-②-|
①⑥④② |③---|
⑥⑥⑥口 |④-⑤-|
⑥⑤⑥口 |⑥---|
12
口口④② |①---|
口⑥口③ |②-③-|
口口⑤① |④--⑤|
口口口口 |--⑥-|
13
口①口口 |①--②|
⑤⑥口口 |--③-|
③②口口 |④--⑤|
④口口口 |--⑥-|
14
口①口口 |①--②|
口口②⑤ |--③-|
口③⑥④ |--④-|
口口口口 |⑤-⑥-|
15
口④口口 |①---|
②口①⑤ |②-③-|
③口⑤口 |--④-|
口口口口 |--⑤-|
16
②口口① |①---|
口④①口 |----|
③口口口 |--②-|
口口口口 |③-④-|
17
③口口① |①-②-|
口⑤①② |----|
④口②口 |③-④-|
口⑥口口 |⑤-⑥-|
18
口①口② |①---|
⑤口②③ |②-③-|
④口③口 |----|
口口口口 |④-⑤-|
19
口口口口 |①-②-|
口②④口 |③-④-|
口①③口 |----|
口口口口 |----|
20
①③⑤口 |①-②-|
⑥口④② |③-④-|
①③⑤口 |⑤--⑥|
口⑦口口 |--⑦-|
21
①口口③ |①---|
⑤口⑤② |②-③-|
①④口④ |④--⑤|
⑥口⑥口 |--⑥-|
22
口③①③ |①--②|
口口口口 |--③-|
口口②口 |----|
口口口口 |----|
23
②口口口 |①---|
口口口口 |--②-|
口口口口
口①口口

口口口口
口口口③
口口④口 |--③-|
口⑤口口 |④-⑤-|
24
口②④② |①---|
口口③口 |②---|
④③口口 |③-④-|
①⑤①⑤ |--⑤-|
25
⑤口口① |----|
②口口口 |①-②-|
口口口③ |③-④-|
④口口口 |--⑤-|
26
口口口口 |①②③-|
口③②① |----|
口口口口 |----|
口口口口 |----|
27
口口口口 |----|
口口口口 |----|
口口③口 |--①-|
①②口口 |②-③-|
28
口口口③ |①-②-|
①①口① |③-④-|
④④口④
口口②口

⑤⑤⑤口
口⑦⑧口
口口⑥口 |⑤--⑥|
口口口口 |--⑦⑧|
29
口口⑥⑤ |①-②-|
口口⑥① |--③-|
③④口⑤ |④--⑤|
③④②② |--⑥-|
30
②①口口 |①--②|
口①口口 |--③-|
②口口口
口③③口

口⑥⑦口
⑤口口⑤
口④④口 |④--⑤|
口口口口 |--⑥⑦|
31
⑤⑤口① |①-②-|
④③口口 |--③-|
②⑥⑥② |④--⑤|
口口③④ |--⑥-|
32
口口③口 |①-②-|
口口④① |③-④-|
口口口②
口口口口

口口口口
⑦口口⑧
口口口口 |⑤-⑥-|
口⑤⑥口 |⑦-⑧-|
33
④口口口 |----|
口口口⑤ |--①②|
口③②① |③--④|
口口口口 |--⑤-|
34
⑤口口口 |①-②-|
口①③口 |③-④-|
口口口口 |--⑤-|
⑥②④口 |--⑥-|
35
口口口口 |--①-|
⑦⑤⑥口 |②-③-|
口③④口 |④-⑤-|
口①②口 |⑥-⑦-|
36
③⑥⑥① |①-②-|
口⑦⑧口 |③-④-|
④口口② |⑤--⑥|
⑤口⑤口 |--⑦⑧|
37
口口口口 |①---|
④口口① |--②-|
口②⑤口 |③--④|
口③口口 |--⑤-|
38
口⑦⑥口 |①--②|
⑤口口② |--③-|
口③口口 |④--⑤|
口④①口 |--⑥⑦|
39
①口口口 |①---|
口口口② |----|
②口口口 |②---|
口口口口 |----|
40
①口口① |①---|
口口口口 |----|
口①①口 |----|
口口口口 |----|
41
④口口④ |----|
口口①口 |①-②-|
口②③口 |③--④|
口⑤⑥口 |--⑤⑥|
42
口口口口 |①---|
③口口口 |----|
②口口口 |--②-|
④口口① |③-④-|
43
①口口② |①--②|
口④④① |--③-|
④②口④ |④---|
口③③口 |----|
44
⑤④①② |①--②|
④口口① |--③-|
口⑤②口 |④--⑤|
⑥③③⑥ |--⑥-|
45
④⑤①② |①--②|
口④口① |--③-|
⑤口②口 |④--⑤|
⑥③③⑥ |--⑥-|
46
口口①口 |①--②|
③④口① |--③④|
口②②口
口口口口

⑥⑦⑨⑧
口口⑤口
口口口口 |⑤-⑥⑦|
口口口口 |-⑧⑨-|
47
⑬⑭⑮⑯ |①②③④|
⑨⑩⑪⑫ |⑤⑥⑦⑧|
⑤⑥⑦⑧ |⑨⑩⑪⑫|
①②③④ |⑬⑭⑮⑯|
48
⑥⑦⑥⑦ |①-②-|
口④口口 |③-④-|
②⑤③⑤ |⑤--⑥|
口①①口 |--⑦-|
49
⑤口⑤口 |①-②-|
口④⑦口 |③-④-|
②⑥③⑥ |⑤--⑥|
口①①口 |--⑦-|
50
⑥③口⑦ |①-②-|
⑤⑤⑥④ |③-④-|
②口口⑦ |⑤--⑥|
口①①口 |--⑦-|
51
⑤⑤①口 |①-②-|
④④⑧⑦ |③-④-|
③③①口 |⑤-⑥-|
②②⑥口 |⑦-⑧-|
52
④⑦③① |①-②-|
⑦⑤口⑥ |③-④-|
②口①③ |⑤--⑥|
口⑤口⑥ |--⑦-|
53
口口③② |①---|
口口③口 |②-③-|
口①①②
口口口口

④口口口
⑥口口⑤
④⑥口口 |④--⑤|
口口口⑤ |--⑥-|
54
④③③② |①--②|
⑤⑤口口 |--③-|
⑥⑥⑥② |--④-|
口①①口 |⑤-⑥-|
55
口③口口 |----|
③口②口 |----|
口②口① |--①-|
口口①口 |②-③-|
56
①⑦口② |①-②-|
⑦⑥⑦口 |③-④-|
口⑦口⑤ |⑤--⑥|
③口⑤④ |--⑦-|
57
①口①口 |①---|
口口口口 |②-③-|
①口①口
口②③口

⑥口口口
⑤④⑤④
⑥⑤口⑤ |④--⑤|
口口口口 |--⑥-|
58
口口①① |①---|
口口口口 |----|
口口口口
口口口口

口口④⑤
③口③口
口②口② |②--③|
口口口口 |--④⑤|
59
⑬⑭⑮⑯ |①②③④|
⑨⑩⑪⑫ |⑤⑥⑦⑧|
⑤⑥⑦⑧ |⑨⑩⑪⑫|
①②③④ |⑬⑭⑮⑯|
60
口⑤口⑦ |①---|
口③口口 |②-③-|
口④②⑥ |④-⑤-|
口①①口 |⑥-⑦-|
61
①口③⑤ |----|
口②口口 |①-②-|
口口口口 |③--④|
口口④口 |--⑤-|
62
口①④口 |①---|
口口⑦⑥ |②-③-|
③①④口 |④--⑤|
口②⑤口 |--⑥⑦|
63
口口口口 |①---|
口①口口 |----|
口口口口 |----|
口口口口 |----|
64
口①口口 |①---|
①口口口 |----|
口口口①
口口①口

口⑤④③
口口③②
②③口口 |②--③|
③②口口 |--④⑤|
65
①口口口 |①---|
口①口② |--②-|
口口①②
口口口①

口口④④
口口口口
③口口口 |③--④|
③⑤口⑤ |--⑤-|
66
口口口口 |①②③-|
①②③口 |----|
口④口口 |----|
口口口口 |④---|
67
口②①口 |①---|
口口③① |----|
口④口口 |--②-|
口口口口 |③-④-|
68
口口口② |①-②-|
④口口① |--③-|
③口⑦⑥ |④--⑤|
口⑤口口 |--⑥⑦|
69
口口④口 |①---|
③口口口 |--②-|
②①口⑤ |③--④|
口口口口 |--⑤-|
70
口口⑤口 |①--②|
④⑥⑦① |--③-|
③②口口 |④--⑤|
口口口口 |--⑥⑦|
71
口②②口 |①---|
口③③① |----|
口④④口 |--②-|
口口口口 |③-④-|
72
①口口① |①---|
口口口口 |----|
口口口口 |----|
口口口口 |----|
73
⑥口④③ |--①-|
口②口① |②-③-|
①口②口 |④--⑤|
口⑤口口 |--⑥-|
74
口③口③ |①--②|
①口口② |--③-|
②①②①
口口口口

⑤口⑤口
口⑤口口
口⑥口口 |④--⑤|
⑥④⑥④ |--⑥-|
75
口②口口 |①---|
①③口① |----|
①④口① |--②-|
口口口口 |③-④-|
76
⑤④①② |①-②-|
④口②① |--③-|
口⑤口口 |④--⑤|
⑥③③⑥ |--⑥-|
77
④⑤①② |①--②|
口④口① |--③-|
⑤口②口 |④--⑤|
⑥③③⑥ |--⑥-|
78
口口①口 |①--②|
③④口① |--③④|
口②②口
口口口口

⑥⑦⑨⑧
口口⑤口
口口口口 |⑤-⑥⑦|
口口口口 |-⑧⑨-|
79
⑬⑭⑮⑯ |①②③④|
⑨⑩⑪⑫ |⑤⑥⑦⑧|
⑤⑥⑦⑧ |⑨⑩⑪⑫|
①②③④ |⑬⑭⑮⑯|
80
口口口口 |①-②-|
口口口口 |③-④-|
②口口④
③①①③

口⑦⑥口
⑤⑥口⑤
口口⑥口 |⑤--⑥|
口⑦口口 |--⑦-|
81
①⑥⑦③ |①-②-|
⑤口⑥⑤ |③-④-|
②⑥口④ |⑤--⑥|
口口⑦口 |--⑦-|
82
①口口③ |①-②-|
口⑥⑦口 |③-④-|
⑤⑥⑦⑤ |⑤--⑥|
②口口④ |--⑦-|
83
②①①② |①-②-|
③口口③ |③-④-|
④口口④
口①①口

口口口口
口⑥⑦口
口口口口 |⑤-⑥-|
⑤口⑧⑤ |⑦-⑧-|
84
①③④② |①-②-|
⑤⑥⑥⑥ |③-④-|
③①②④ |⑤--⑥|
⑦⑤口⑦ |--⑦-|
85
①②③① |①---|
口口口口 |②-③-|
②口口③
口口口口

口口口⑥
口④④口
口口⑥口 |④--⑤|
口口⑤⑤ |--⑥-|
86
口口②口 |①--②|
③口口③ |--③-|
口口口②
①①口口

口⑥口口
口⑤④口
口⑤口口 |--④-|
口⑥④口 |⑤-⑥-|
87
④⑪⑪① |①-②③|
⑤⑨⑧⑧ |④⑤⑥⑦|
⑥⑩口② |⑧-⑨-|
⑦口口③ |⑩-⑪-|
88
②口⑦① |①-②-|
⑥⑦⑥⑦ |③-④-|
⑤口⑦口 |⑤--⑥|
④⑤⑥③ |--⑦-|
89
②①⑥① |①---|
④口④口 |②-③-|
口①⑥① |④--⑤|
③⑤口⑤ |--⑥-|
90
口①口① |①---|
口口口口 |----|
口口口口
口口口口

③口④⑤
③口口口
口②口② |②--③|
口口口口 |--④⑤|
91
⑬⑭⑮⑯ |①②③④|
⑨⑩⑪⑫ |⑤⑥⑦⑧|
⑤⑥⑦⑧ |⑨⑩⑪⑫|
①②③④ |⑬⑭⑮⑯|
92
④口口⑤ |--①-|
②口口③ |----|
③口口④ |②-③-|
⑤①①② |④-⑤-|
93
⑦①口⑦ |--①-|
口④⑤⑥ |②③④⑤|
口②③口 |⑥--⑦|
⑧口口⑧ |--⑧-|
94
口①口口 |----|
①①①口 |①---|
①口①口 |----|
口口口口 |----|

不確定度: 0

最終更新:2017年08月13日 13:52