ドーナツホール
ハチ

EXTREME

Level: 9
BPM: 252
Notes: 704

1
口口口口 |----|
口口口口 |----|
口口口口 |----|
口口口口 |----|
2
口口口口 |----|
口口口口 |----|
口口口口 |①-②-|
口①②口 |----|
3
口口口口 |①---|
①②口口 |----|
①②口口 |②---|
口口口口 |----|
4
口口④③ |①---|
口口①口 |②---|
口口①口 |③-④-|
口②口口 |----|
5
口口口口 |①---|
口口②① |----|
口口②① |②---|
口口口口 |----|
6
口③③口 |①---|
口①口口 |②---|
口①口口 |③---|
口②②口 |----|
7
口口口口 |①---|
①②口口 |----|
①②口口 |②---|
口口口口 |----|
8
口口④③ |①---|
口口①口 |②---|
口口①口 |③-④-|
口②口口 |----|
9
口口口口 |①---|
口口②① |----|
口口②① |②---|
口口口口 |----|
10
③③④口 |①---|
口①口④ |②---|
口①口口 |③---|
口②②口 |--④-|
11
口口口口 |--①-|
口①②口 |②-③-|
⑤③④⑥ |④---|
口口口口 |⑤-⑥-|
12
④⑤⑥口 |①---|
①口口口 |②-③-|
口口口口 |--④-|
口②③口 |⑤-⑥-|
13
口口口口 |①-②-|
④③②① |③-④-|
口⑤⑥口 |⑤-⑥-|
口⑦⑧口 |⑦-⑧-|
14
口④口② |①---|
④口口③ |②-③-|
①口口口 |----|
口口口口 |--④-|
15
口口口口 |----|
口①②口 |①-②-|
⑤③④⑥ |③-④-|
口口口口 |⑤-⑥-|
16
①⑥⑤④ |①---|
口口口口 |②-③-|
口口口口 |--④-|
口②③口 |⑤-⑥-|
17
口口口口 |①-②-|
①②③④ |③-④-|
口⑥⑤口 |⑤-⑥-|
口⑧⑦口 |⑦-⑧-|
18
②口口口 |①---|
③口口口 |②-③-|
口口口① |----|
口口口口 |----|
19
口③口口 |①---|
④口②① |②---|
①②口④ |③---|
口口③口 |④---|
20
②口①② |①---|
口口④③ |②---|
口口口口 |③---|
口①④③ |④---|
21
⑥⑦⑤④ |--①-|
口口口口 |②-③-|
①②③口 |④-⑤-|
口口口口 |⑥-⑦-|
22
口口⑥口 |①-②-|
⑤①②⑥ |③-④-|
口口口口 |⑤---|
口③④口 |--⑥-|
23
口口口口 |--①-|
⑦口口口 |②-③-|
⑤①②⑥ |④-⑤-|
口③④口 |⑥-⑦-|
24
④⑤⑥口 |①---|
口口口① |②-③-|
口②③口 |--④-|
口口口口 |⑤-⑥-|
25
口口口口 |①-②-|
③①②④ |③-④-|
⑤⑦⑧⑥ |⑤-⑥-|
口口口口 |⑦-⑧-|
26
口④①口 |①---|
④口口口 |②-③-|
口口口口 |----|
口②③口 |--④-|
27
口口口口 |----|
口④⑤① |①-②-|
口口口② |③---|
口口口③ |④-⑤-|
28
⑤⑥⑦口 |①-②-|
口口口口 |③-④-|
口①②口 |--⑤-|
口③④口 |⑥-⑦-|
29
口口口③ |①-②-|
①②口口 |--③-|
口④⑥口 |④-⑤-|
口⑤⑦口 |⑥-⑦-|
30
②口④口 |①---|
③口口④ |②-③-|
口口口① |----|
口口口口 |--④-|
31
口口口口 |----|
口①②口 |①-②-|
口③④口 |③-④-|
口⑤⑥口 |⑤-⑥-|
32
口④⑤⑥ |①---|
①口口口 |②-③-|
口口口② |--④-|
口口口③ |⑤-⑥-|
33
③口口口 |①-②-|
口口②① |--③-|
口⑥④口 |④-⑤-|
口⑦⑤口 |⑥-⑦-|
34
口口口② |①---|
口口口③ |②-③-|
①口口口 |----|
口口口口 |----|
35
口口③口 |①---|
①②口④ |②---|
④口②① |③---|
口③口口 |④---|
36
②①口② |①---|
③④口口 |②---|
口口口口 |③---|
③④①口 |④---|
37
④⑤⑥⑦ |--①-|
口口口口 |②-③-|
口③②① |④-⑤-|
口口口口 |⑥-⑦-|
38
口口⑥口 |①-②-|
⑤①②⑥ |③-④-|
口口口口 |⑤---|
口③④口 |--⑥-|
39
⑤⑥口口 |--①-|
口①②口 |②-③-|
口③④口 |④---|
口口口口 |⑤-⑥-|
40
口口①口 |①---|
口④⑤⑥ |②-③-|
口口口口 |--④-|
口②③口 |⑤-⑥-|
41
口口口口 |①-②-|
口口口口 |③-④-|
③①②④ |⑤-⑥-|
⑦⑤⑥⑧ |⑦-⑧-|
42
口口口② |①---|
①口口③ |②-③-|
口口口口 |----|
口口口口 |----|
43
口口口口 |----|
①口③口 |①---|
口口③口 |②---|
口②口口 |③---|
44
口口②口 |----|
口③口口 |①---|
口③口① |②---|
口口口口 |③---|
45
口②口口 |----|
口口口口 |①---|
①口③口 |②---|
口口口口 |③---|
46
③口口① |①---|
④④②② |②---|
③口口① |③---|
口口口口 |④---|
47
口口口口 |----|
口口口口 |①---|
口口口③ |②---|
口口②① |③---|
48
口口口口 |①---|
②口口口 |②---|
口③①口 |③---|
口口④口 |④---|
49
④③②① |①---|
口口口口 |②---|
口口口口 |③---|
口口口口 |④---|
50
口口③③ |①---|
口口②口 |--②-|
口口口口 |③---|
①口口口 |----|
51
口口口口 |----|
口①口③ |①---|
口口口③ |②---|
口口②口 |③---|
52
口②口口 |----|
③口口口 |①---|
③口①口 |②---|
口口口口 |③---|
53
口③口① |----|
口口口口 |①---|
口口②口 |②---|
口口口口 |③---|
54
①口口③ |①---|
②②④④ |②---|
①口口③ |③---|
口口口口 |④---|
55
口口口口 |----|
口口口口 |①---|
①②口口 |②---|
口口③口 |③---|
56
④口口口 |①---|
口口③② |②---|
口口口口 |③---|
口口口① |④---|
57
口③④口 |①---|
③④口口 |②---|
口口②① |③---|
口②①口 |④---|
58
③口口① |①---|
口口口② |②---|
口③口口 |③---|
口口口口 |----|
59
④口①口 |①---|
④口⑤口 |②-③-|
②口①口 |--④-|
口③口口 |--⑤-|
60
口口④④ |①---|
口①口口 |②---|
③③②③ |③---|
口口②口 |④---|
61
①口口口 |①---|
口③口③ |②---|
口口口口 |③---|
②口④④ |④---|
62
③③口口 |①---|
②口口口 |②---|
①②①口 |----|
口口口口 |③---|
63
口口④④ |①---|
口③口② |②---|
口口口① |③---|
口②①③ |④---|
64
口口口口 |----|
②口口口 |①---|
①①②③ |②---|
口口③口 |③---|
65
①①④口 |①---|
口口口③ |②---|
口口口口 |③-④-|
②②⑤⑤ |--⑤-|
66
①①口④ |----|
口口口口 |①---|
②口口口 |②-③-|
口③口口 |--④-|
67
口⑤⑤口 |----|
口口②③ |①-②-|
口口④① |③-④-|
口口口口 |--⑤-|
68
口口口口 |----|
口口口口 |①---|
口口口口 |----|
①①①① |----|
69
①②口口 |①---|
②①③口 |②---|
口③④口 |③---|
口口口④ |④---|
70
②③②口 |①---|
口口③口 |②---|
口口口① |----|
口口①口 |③---|
71
④口④④ |①---|
②③口① |②---|
③②①口 |③---|
口口口口 |④---|
72
口口口口 |----|
口口③口 |①---|
口②口口 |②---|
①口口口 |③---|
73
④②②口 |①---|
口③口口 |②---|
口口口口 |③-④-|
⑤①①⑤ |--⑤-|
74
口口④口 |----|
口口口③ |①---|
②②口口 |②---|
口①①口 |③-④-|
75
口④口④ |----|
口口④口 |①---|
③口①① |②-③-|
口②口口 |--④-|
76
②口口口 |----|
口口口口 |①---|
口①口口 |----|
①口①口 |②---|
77
口⑤⑤口 |①---|
口②②④ |②---|
①口③口 |③-④-|
口口口口 |--⑤-|
78
②口口口 |----|
口口②④ |①---|
口口③口 |②---|
①口口① |③-④-|
79
口口口口 |----|
③口④口 |①---|
口②口口 |②③-④|
口①①④
80
口口口口 |----|
口口口口 |----|
③口口口 |----|
口口口口 |③---|
81
口口口口 |①---|
口②口② |②---|
口①③口 |③---|
口口④口 |④---|
82
口③③③ |①---|
口口口口 |②---|
②口口口 |----|
①口口口 |③---|
83
③口口口 |①---|
④①口① |②---|
口②②② |③---|
口口口口 |④---|
84
口③口口 |----|
口口口① |①---|
口口口② |②---|
口口口口 |③---|
85
口口口⑤ |①---|
口①④③ |②---|
口②口口 |③-④-|
口口口口 |--⑤-|
86
④口口口 |----|
②③口口 |①---|
口口口口 |②-③-|
口口①口 |--④-|
87
口口口④ |----|
口口③② |①---|
口口④口 |②-③-|
口①口口 |--④-|
88
口口口口 |----|
②口口口 |①---|
①口口① |----|
口口口口 |②---|
89
口口口口 |①---|
口①口口 |②---|
口②③口 |③---|
口口④口 |④---|
90
③口口口 |①---|
口口口② |②---|
口口口口 |----|
口口口① |③---|
91
口①口口 |①---|
②③口口 |②---|
口口口口 |③---|
口④口口 |④---|
92
口口口口 |----|
口口口口 |①---|
口①口② |②---|
口口③口 |③---|
93
口②口⑤ |①---|
口①④③ |②---|
口口口口 |③-④-|
口口口口 |--⑤-|
94
口口口口 |----|
③口口④ |①---|
口口口口 |②---|
口②①口 |③-④-|
95
②①①口 |①-②-③④-⑤|
口口⑤口
③④口口
口⑤口口
96
口②②② |②---|
口口口口 |③---|
口③③口
口口口口
97
①口口口 |①---|
口③口③ |②---|
口口口口 |③---|
②口④④ |④---|
98
③③口口 |①---|
②口口口 |②---|
①②①口 |----|
口口口口 |③---|
99
口口④④ |①---|
口③口② |②---|
口口口① |③---|
口②①③ |④---|
100
口口口口 |----|
②口②口 |①---|
①①口③ |②---|
口口③口 |③---|
101
①①口④ |①---|
口口④③ |②---|
口口③口 |③-④-|
②②⑤⑤ |--⑤-|
102
①①口④ |----|
②口口口 |①---|
③②口口 |②-③-|
口③口口 |--④-|
103
口⑤⑤口 |----|
口口②③ |①-②-|
口口④① |③-④-|
口口口口 |--⑤-|
104
口口口口 |----|
口口口口 |①---|
口口口口 |----|
①①①① |----|
105
①②口口 |①---|
②①③口 |②---|
口③④口 |③---|
口口口④ |④---|
106
②口②口 |①---|
口③口口 |②---|
口口口① |----|
口③①口 |③---|
107
口②口口 |①---|
口口口② |----|
②①①口 |②---|
口口②口 |----|
108
口口①口 |①---|
①口口口 |----|
口②②① |②---|
②①口② |----|
109
①③口口 |①---|
口口口口 |②---|
②④口口 |③---|
口口口口 |④---|
110
口口①③ |①---|
口口口口 |②---|
口口②④ |③---|
口口口口 |④---|
111
口口口口 |①---|
口口④② |②---|
口口口口 |③---|
口口③① |④---|
112
口口口④ |①---|
口②口口 |②---|
口口③口 |③---|
口①口口 |④---|
113
口⑤⑤口 |①---|
②口口③ |②---|
口口口④ |③-④-|
口口口① |--⑤-|
114
口口口口 |----|
③②口口 |①---|
口④④口 |②-③-|
①口口① |--④-|
115
口口②③ |----|
口④口口 |①---|
口口口口 |②-③-|
④①①口 |--④-|
116
口口口② |----|
口口①口 |①---|
口口口口 |----|
口口口① |②---|
117
口口口⑤ |①---|
口口口① |②---|
②口⑤口 |③-④-|
③④口口 |--⑤-|
118
④口口口 |----|
②③①口 |①---|
④口口口 |②-③-|
口口①口 |--④-|
119
口口口④ |----|
口口③② |①---|
口口口④ |②-③-|
①①口口 |--④-|
120
②口口口 |----|
口口口口 |①---|
②口口口 |----|
口口①① |--②-|
121
口口口④ |----|
口口③② |①---|
口口口④ |②-③-|
①①口口 |--④-|
122
②口口口 |----|
口口口口 |①---|
②口口口 |----|
口口①① |--②-|
123
口口口④ |----|
口口③② |①---|
口口口④ |②-③-|
①①口口 |--④-|
124
口口口口 |----|
口②口口 |①---|
口口口口 |----|
口口①① |②---|
125
⑤⑤④口 |①---|
口口③口 |②---|
口口①口 |③-④-|
口②口口 |--⑤-|
126
口口口口 |----|
口②口② |①---|
口口②口 |--②-|
①②①② |----|

不確定度: 0

最終更新:2017年08月13日 13:48