NANIMONO(feat.米津玄師)
中田ヤスタカ

EXTREME

Level: 7
BPM: 128
Notes: 503

1
口口口口 |----|
口口口口 |----|
口口口口 |----|
口口口口 |----|
2
④口口④ |①-②-|
口口口口 |③-④-|
②③口口
口①①口

口口口口
⑤口口口
⑥口口口 |--⑤-|
⑦口口口 |⑥-⑦-|
3
④口口④ |①-②-|
口口口口 |③-④-|
口口③②
口①①口

口口口口
口口口⑤
口口口⑥ |--⑤-|
口口口⑦ |⑥-⑦-|
4
④口口④ |①-②-|
口口口口 |③-④-|
②③口口
口①①口

口口口口
⑤口口口
⑥口口口 |--⑤-|
⑦口口口 |⑥-⑦-|
5
④口口④ |①-②-|
口口口口 |③-④-|
口口③②
口①①口

口口口口
口口口⑤
口口口⑥ |--⑤-|
口口口⑦ |⑥-⑦-|
6
口④①口 |①-②-|
口口口口 |③-④-|
②③口口
口①④口

口口口口
⑤口口口
⑥口口口 |--⑤-|
⑦口口口 |⑥-⑦-|
7
口①④口 |①-②-|
口口口口 |③-④-|
口口③②
口④①口

口口口口
口口口⑤
口口口⑥ |--⑤-|
口口口⑦ |⑥-⑦-|
8
口④①口 |①-②-|
口口口口 |③-④-|
②③口口
口①④口

口口口口
⑤口口口
⑥口口口 |--⑤-|
⑦口口口 |⑥-⑦-|
9
口①④口 |①-②-|
口口口口 |③-④-|
口口③②
口④①口

口口口口
口口⑥⑤
口⑦⑦口 |--⑤-|
口口口口 |⑥-⑦-|
10
①①①① |①---|
口②口口 |--②-|
口口口④ |③---|
口③口口 |--④-|
11
①口口① |①---|
口②口口 |②-③-|
口③⑤口 |④---|
口④口口 |--⑤-|
12
口①①⑤ |①---|
口②口口 |--②-|
口口口④ |③---|
口③口口 |④-⑤-|
13
口口口口 |①-②-|
口①①口 |③-④-|
口⑤④⑥ |⑤---|
口②③口 |--⑥-|
14
①口口① |①---|
口②口口 |--②-|
口口口④ |③---|
口③口口 |--④-|
15
①口口① |①-②-|
口③④口 |③-④-|
②口口口
口口口口

口口口口
⑥口口⑤
⑦⑦口口 |⑤---|
口口口口 |⑥-⑦-|
16
⑤口口⑤ |①---|
口口口② |--②-|
口④③口 |--③-|
①①①口 |④-⑤-|
17
口口口口 |①-②-|
④③②口 |③-④-|
口口口口
口①①口

口口口口
口口口口
口口口口 |⑤-⑥-|
⑤⑥⑦⑧ |⑦-⑧-|
18
④口①口 |①--②|
口①口口 |③-④-|
口②③口
口口口口

口口⑦⑤
口⑥口口
口口⑧口 |⑤-⑥-|
口口口口 |⑦-⑧-|
19
口①⑥口 |①--②|
口⑥①④ |③-④-|
口口口口 |⑤---|
口②③⑤ |--⑥-|
20
③①口④ |①---|
⑤口①口 |②-③-|
口口②口 |④-⑤-|
⑥⑦口⑦ |⑥-⑦-|
21
口③口口 |①-②-|
口①③① |③--④|
②口②口
口④口口

口口口口
⑥口口⑥
口口口口 |⑤---|
⑦口⑤⑦ |⑥-⑦-|
22
④②①口 |①-②-|
口①口口 |③-④-|
口③口口
口口口口

口口口⑦
⑤⑥口⑤
口口⑧口 |⑤-⑥-|
口口口口 |⑦-⑧-|
23
口①②口 |①---|
③②①③ |②---|
②口口① |③---|
口口口口 |----|
24
④②①③ |①-②-|
③①②④ |③-④-|
⑤⑥口口 |⑤-⑥-|
口口⑧⑦ |⑦-⑧-|
25
口①口④ |①---|
④②①口 |②-③-|
口口口口 |④---|
⑤③口⑤ |⑤---|
26
①口口② |①--②|
口口口口 |--③-|
②口口①
口③③口

⑤⑦⑦口
④口口口
口口口口 |-④⑤-|
⑥口口⑥ |⑥-⑦-|
27
②口口① |①--②|
口口口口 |--③-|
①口口②
口③③口

口⑦⑦⑤
口口口④
口口口口 |-④⑤-|
⑥口口⑥ |⑥-⑦-|
28
①口口② |①--②|
口口口口 |--③-|
②口口①
口③③口

⑤⑦⑦口
④口口口
口口口口 |-④⑤-|
⑥口口⑥ |⑥-⑦-|
29
②口口① |①--②|
口口口口 |--③-|
①口口②
口③③口

口⑥⑦⑤
口口口④
口⑦⑥口 |-④⑤-|
口口口口 |⑥-⑦-|
30
①口口② |①--②|
口口口口 |--③-|
②口口①
口③③口

⑤⑦⑦口
④口口口
口口口口 |-④⑤-|
⑥口口⑥ |⑥-⑦-|
31
②口口① |①--②|
口口口口 |--③-|
①③③②
口口口口

口⑦⑦⑤
口口口④
口口口口 |-④⑤-|
⑥口口⑥ |⑥-⑦-|
32
①口口② |①--②|
口口口口 |--③-|
②口口①
口③③口

⑤⑦⑦口
④口口口
口口口口 |-④⑤-|
⑥口口⑥ |⑥-⑦-|
33
②口口① |①--②|
④⑥口④ |--③-|
①口⑥② |--④-|
⑤③③⑤ |⑤-⑥-|
34
口口①① |①---|
口口口口 |----|
①①口口 |----|
口口口口 |----|
35
①口口口 |①---|
口①口口 |----|
口口①口 |----|
口口口① |----|
36
口口口① |①---|
口口①口 |----|
口①口口 |----|
①口口口 |----|
37
口口口口 |①---|
口口口口 |----|
①①①① |----|
口口口口 |----|
38
口口口① |①---|
口口①口 |----|
口①口口 |----|
①口口口 |----|
39
①口口口 |①---|
口①口口 |----|
口口①口 |----|
口口口① |----|
40
口口口口 |①---|
口口口口 |----|
①①①① |----|
口口口口 |----|
41
口口口口 |①---|
①①①① |----|
①口口① |----|
口口口口 |----|
42
①口口① |①---|
口②口口 |--②-|
口口口④ |③---|
口③口口 |--④-|
43
①口口① |①---|
口②口口 |②-③-|
口③⑤口 |④---|
口④口口 |--⑤-|
44
口①①⑤ |①---|
口②口口 |--②-|
口口口④ |③---|
口③口口 |④-⑤-|
45
口口口口 |①---|
口①①口 |②-③-|
口口口⑤ |④---|
口②③④ |--⑤-|
46
①口口① |①---|
口②口口 |--②-|
口口口④ |③---|
口③口口 |--④-|
47
①口口① |①-②-|
口③④口 |③-④-|
②口口口
口口口口

口口口口
⑥口口⑤
⑦⑦口口 |⑤---|
口口口口 |⑥-⑦-|
48
口⑤口口 |①---|
口口②② |--②-|
口④③口 |--③-|
①①①口 |④-⑤-|
49
口④①口 |--①-|
⑥②⑤⑥ |②-③-|
口口③口 |④-⑤-|
⑦①④⑦ |⑥-⑦-|
50
口口①口 |①--②|
口①口口 |③--④|
①②③口
口④口口

口口口口
⑥口口口
口口⑧口 |⑤-⑥-|
口口⑤⑦ |⑦-⑧-|
51
口①②口 |①---|
口②①口 |②---|
②口口① |③---|
口③③口 |----|
52
口②①口 |①---|
⑤①④口 |②-③-|
①③口口 |④-⑤-|
⑥⑦口⑦ |⑥-⑦-|
53
口③口口 |①-②-|
口①③① |③--④|
②口②③
口④口口

口口口口
⑥口口⑥
口口口口 |⑤---|
⑦口⑤⑦ |⑥-⑦-|
54
④②①口 |①-②-|
口①口口 |③-④-|
①③口口
口口口口

口口口⑦
⑤⑥口⑤
口口⑧口 |⑤-⑥-|
口口口口 |⑦-⑧-|
55
口①②口 |①---|
口②①口 |②--③|
②口口①
口③口口

口口口口
口口口口
口口口⑤ |④---|
口口④口 |--⑤-|
56
①口口① |①--②|
口②③口 |③-④-|
⑤⑥口口 |⑤-⑥-|
口④⑧⑦ |⑦-⑧-|
57
口①口口 |①---|
口②①口 |②-③-|
口口口①
口③口口

口⑤⑤口
⑤口口⑤
口④④口 |④---|
④口口④ |⑤---|
58
①③③① |①---|
口口口口 |②---|
口口口口 |③---|
②④④② |④---|
59
口③③① |①---|
①口口口 |②---|
口口口口 |③---|
②④④② |④---|
60
①③③口 |①---|
口口口① |②---|
口口口口 |③---|
②④④② |④---|
61
口口口① |①---|
②口口口 |②---|
口口口③ |③---|
④口口口 |④---|

不確定度: 0

最終更新:2017年08月13日 13:31