Invisible Border
world sequence

BASIC

Level: 4
BPM: 156
Notes: 167

1
口口口口 |----|
口口口口 |----|
口口口口 |----|
口口口口 |----|
2
口口口口 |①---|
口口口口 |----|
①口口口 |----|
口口口口 |----|
3
口口口口 |①---|
口口口口 |----|
口①口口 |----|
口口口口 |----|
4
口口口口 |①---|
口口口口 |----|
口口①口 |----|
口口口口 |----|
5
口口口口 |①---|
口口口口 |----|
口口口① |----|
口口口口 |----|
6
口口口口 |①---|
口口口① |----|
口口口口 |----|
口口口口 |----|
7
口口口口 |①---|
口口①口 |----|
口口口口 |----|
口口口口 |----|
8
口口口口 |①---|
口①口口 |----|
口口口口 |----|
口口口口 |----|
9
口口口口 |①---|
①口口口 |----|
口口口口 |----|
口口口口 |----|
10
口口口口 |①---|
口①①② |----|
口口口口 |②---|
口口口口 |----|
11
口口口口 |①---|
口口口口 |----|
口口口① |②---|
口口口② |----|
12
口口口口 |①---|
口口口口 |----|
口口②口 |②---|
口口①口 |----|
13
口口②口 |①---|
口口①口 |----|
口口口口 |②---|
口口口口 |----|
14
口①口口 |①---|
口②口口 |----|
口口口口 |②---|
口口口口 |----|
15
口口口口 |①---|
口口口口 |----|
口①口口 |②---|
口②口口 |----|
16
口口口口 |①---|
口口口口 |----|
②口口口 |②---|
①口口口 |----|
17
②口口口 |①---|
①口口口 |----|
口口口口 |②---|
口口口口 |----|
18
口口②口 |①---|
口①①口 |----|
口口口口 |②---|
口口口口 |----|
19
②①口口 |①---|
口口口口 |----|
口口口口 |②---|
口口口口 |----|
20
口口口口 |①---|
①②口口 |----|
口口口口 |②---|
口口口口 |----|
21
口口口口 |①---|
口口①② |----|
口口口口 |②---|
口口口口 |----|
22
口口口口 |①---|
口口口口 |----|
口口②① |②---|
口口口口 |----|
23
口口口口 |①---|
口口口口 |----|
②①口口 |②---|
口口口口 |----|
24
口口口口 |①---|
口口口口 |----|
口口口口 |②---|
①②口口 |----|
25
口口口口 |①---|
口口口口 |----|
口口口口 |②---|
口口①② |----|
26
口口口口 |①---|
口口口 |----|
口口口 |----|
口口口口 |----|
27
口口口口 |----|
口口口口 |----|
口口① |①---|
口口口口 |----|
28
口口口口 |①---|
②口口口 |----|
口①口口 |②---|
口口口口 |----|
29
口口 |①---|
口口 |----|
口口口口 |----|
口口口口 |----|
30
口口口 |①---|
口 |----|
口口口口 |----|
口口口口 |----|
31
口③②口 |①---|
口①口 |--②-|
口口口口 |----|
口口口口 |③---|
32
①口口口 |①---|
②口口口 |----|
口口口口 |②---|
口口口口 |----|
33
口口口口 |①---|
口口口口 |----|
①口口口 |②---|
②口口口 |----|
34
口口口口 |①---|
口口口口 |----|
口口 |----|
口口 |----|
35
口口口口 |①---|
口口口口 |----|
口口②口 |②---|
①口 |----|
36
口口口口 |①---|
口②①口 |----|
口口口口 |②---|
口口口口 |----|
37
口口口口 |①---|
①口口口 |----|
②口口口 |②---|
口口口口 |----|
38
口口口口 |①---|
口口口 |----|
口①口 |②---|
口口口口 |----|
39
口口口口 |----|
口①口口 |----|
口口口 |①---|
口口口口 |----|
40
①口口口 |①---|
②口口口 |②---|
③口口口 |③---|
④口口口 |④---|
41
口①口口 |①---|
口②口口 |②---|
口③口口 |③---|
口④口口 |④---|
42
口口①口 |①---|
口口②口 |②---|
口口③口 |③---|
口口④口 |④---|
43
口口口① |①---|
口口口② |②---|
口口口③ |③---|
口口口④ |④---|
44
口口口口 |①---|
口 |----|
口 |----|
口口口口 |----|
45
口口口口 |----|
口口口① |----|
口 |①---|
口口口口 |----|
46
口口口 |①---|
口口口 |----|
口口口口 |----|
口口口口 |----|
47
口口口口 |----|
口①口 |----|
口②口口 |①---|
口口口口 |②---|
48
口口口口 |①---|
口口口口 |----|
口口口口 |----|
口口 |----|
49
口口口口 |----|
口口口口 |----|
口口②口 |①---|
①口 |②---|
50
口口口口 |①---|
口口 |----|
口口口口 |----|
口口口口 |----|
51
口口口口 |①---|
口①口 |----|
口口口口
口口口口

口口口口
口③口口
口②口口 |②---|
口口口口 |③---|
52
口口 |①---|
口口口口 |----|
口口口口 |----|
口口口口 |----|
53
①口 |----|
口口口口 |----|
口口口口 |①---|
口口口口 |----|
54
口口口口 |①---|
口口 |----|
口口口口 |----|
口口口口 |----|
55
口口口口 |----|
口① |----|
口口口② |①---|
口口口口 |②---|
56
口口口口 |①---|
口口口口 |----|
口口口口 |----|
口口 |----|
57
口口口口 |----|
口口口口 |----|
口口①口 |①---|
口口口 |----|
58
口口口口 |①---|
口口 |----|
口口 |----|
口口口口 |----|
59
口口口口 |①---|
口口口口 |----|
①口
口口口口

口口口口
口口口口
口口③③ |②---|
口②②口 |③---|
60
口口 |①---|
口口 |----|
口口口口 |----|
口口口口 |----|
61
口口①① |----|
口口 |----|
口口口口 |①---|
口口口口 |----|
62
口口口口 |①---|
口口 |----|
口口 |----|
口口口口 |----|
63
口①口口 |----|
口② |----|
口口口口 |①---|
口口口口 |②---|
64
口口口口 |①---|
口口口口 |----|
口口 |----|
口口口口 |----|
65
口口口口 |----|
口口口口 |----|
②口 |①---|
口口①口 |②---|
66
口口口口 |①---|
口口 |----|
口口口口 |----|
口口口口 |----|
67
口口口口 |①---|
口口口 |----|
口①口口
口口口口

口口口口
口口口口
③③口口 |②---|
口②②口 |③---|
68
口口 |①---|
口口 |----|
口口口口 |----|
口口口口 |----|
69
①①口口 |----|
口口 |----|
口口口口 |①---|
口口口口 |----|
70
口口口口 |①---|
口口 |----|
口口 |----|
口口口口 |----|
71
口口①口 |----|
②口 |----|
口口口口 |①---|
口口口口 |②---|
72
口口口口 |①---|
口口口口 |----|
口口 |----|
口口口口 |----|
73
口口口口 |----|
口口口口 |----|
口①口 |①---|
口口口口 |----|
74
口 |①---|
口 |----|
口口口口 |----|
口口口口 |----|
75
口口口口 |----|
口口口口 |----|
口口口口 |----|
口口口口 |----|
76
口口口口 |①---|
口 |----|
|----|
口口口口 |----|
77
口口口口 |----|
口口口口 |----|
口 |----|
口口口口 |①---|

不確定度: 0

最終更新:2017年03月29日 17:25