Invisible Border
world sequence

EXTREME

Level: 9
BPM: 156
Notes: 629

1
口口口口 |----|
口口口口 |----|
口口口口 |----|
口口口口 |----|
2
口口口 |①---|
①②③ |--②-|
口口口 |----|
口①② |③---|
3
口口口口 |①---|
口口口口

口口口口

口口口口
口口 |--②-|
口口
口口


口口
口口口口 |----|
口口口口 |③---|
4
口口② |①---|
口③口口 |----|
口口口口 |----|
口口口 |--②③|
5
口口②口 |①-②-|
③口口⑧ |③-④-|
⑦口①④ |⑤-⑥-|
口⑤⑥口 |⑦-⑧-|
6
口口 |①---|
口口
口口
口口口口


口口口 |--②-|
口口口 |----|
口口口 |----|
7
④口口 |----|
口③口口 |--①②|
口口②口 |③---|
口①口口 |④---|
8
口口口 |①---|
口口
口口
口口口口

口口
口②口⑦ |--②③|
⑥口③⑤ |④-⑤-|
口④口口 |⑥-⑦-|
9
①口口② |①-②-|
口③④口 |③-④-|
口⑤⑥⑧ |⑤-⑥-|
口⑦口口 |⑦-⑧-|
10
口口口① |①-②-|
口③②⑤ |--③-|
④口口口 |④---|
口口口口 |--⑤-|
11
口口口口 |①---|
②口口口 |--②-|
口口口④ |③---|
口③①口 |--④-|
12
口口口⑤ |①---|
口③③⑥ |②-③-|
口④④口 |----|
口②①口 |④-⑤⑥|
13
口②口口 |①-②-|
⑧④③⑦ |③-④-|
口⑥⑤① |⑤-⑥-|
口口口口 |⑦-⑧-|
14
口口口① |①---|
口口①口 |--②-|
口口口②
口口②口

口口口口

口 |----|
口口口口 |③---|
15
口④口口 |----|
①口口口 |--①②|
②口口口 |③---|
③口口口 |④---|
16
①④③⑤ |①---|
口①⑥ |--②-|
口口口 |③-④-|
口②口口 |⑤-⑥-|
17
口口口口 |①---|
口口口口

口口口口

口口口口
口口 |--②-|
口口
口口口口

口口

④口口口 |----|
口口口口 |③-④-|
18
①口口 |①-②-|
⑤②③口 |--③-|
口口口④ |④---|
口口口口 |--⑤-|
19
口口口口 |①---|
口口口② |--②-|
④口口口 |③---|
口①③口 |--④-|
20
口口口口 |①---|
口③③口 |②-③-|
⑥④④口 |----|
⑤①②口 |④-⑤⑥|
21
口口②口 |①-②-|
①③④口 |③-④-|
口口口口
口口口口

口口口口
⑦口口⑧
口⑤⑥口 |⑤-⑥-|
口口口口 |⑦-⑧-|
22
①口口口 |①---|
口①口口 |--②-|
②口口口
口②口口

口口口口

|----|
口口口口 |③---|
23
口口④口 |----|
口口口③ |--①②|
口口口② |③---|
口口口① |④---|
24
口口口① |①---|
口①③ |--②-|
③② |----|
口口②口 |③---|
25
①②③④ |①②③④|
⑤⑥⑦⑧ |⑤⑥⑦⑧|
⑨⑩⑪⑫ |⑨⑩⑪⑫|
⑬⑭⑮⑯ |⑬⑭⑮⑯|
26
口口口口 |①---|
口 |----|
口口口口 |----|
口口口口 |----|
27
口 |----|
口口口 |----|
口口口口 |①---|
口口口口 |----|
28
口口 |①---|
口口 |----|
口口
口口口口

口口
口口口口
口口 |②---|
口口口口 |----|
29
口口 |①---|
口口口 |----|
口口口口
口口口口

口口

口口口口 |②---|
口口口口 |----|
30
口口口 |①---|
口口 |----|
口口口 |----|
口口口口 |----|
31
口口口 |①---|
口口口口

口口口口


口口口口 |--②-|
口口
口口口口

口口
口口
口口口口 |----|
口口口口 |③---|
32
口口口口 |①---|
|----|
口口口口
口口口口

口口口口
口口
口口 |②---|
口口 |----|
33
口口口 |①---|
口口口 |----|
口口
口口口口

口口口
口口
口口口 |②---|
口口口口 |----|
34
口口口② |①---|
③ |②-③-|
口口
口口口口

口口④口
口口⑤口
口口口口 |--④-|
口口口口 |⑤---|
35
口口口口 |①-②-|
口口口 |--③-|
口③口②
口口

口口口口
口口④口
口口⑤口 |④-⑤-|
口⑥口 |⑥---|
36
|①---|
口口口口 |②-③-|
口③口口
②口口口

⑤⑥口

口口口口 |④-⑤-|
口口口口 |⑥---|
37
口口③口 |①-②-|
口②口 |--③-|

口口口口

口口口口
口口口④
口口⑤ |④-⑤-|
口口口⑥ |⑥---|
38
口口口口 |①---|
②③口口 |②-③-|
口口口口


口口口⑤
口口口⑥
口 |④-⑤-|
口口口 |⑥---|
39
口④②口 |①-②-|
口⑤①口 |--③-|
⑥③口 |④-⑤-|
口口口口 |⑥---|
40
口②①口 |①---|
口④③口 |②---|
②口口① |③---|
④口口③ |④---|
41
②口口① |①---|
口口口口 |②---|
口②①口
口口口口

口口口口
④口⑤③
口口⑥口 |③---|
口④③口 |④-⑤⑥|
42
①口②口 |①---|
口①口② |②---|
③口④口 |③---|
口③口④ |④---|
43
口①口① |①---|
口口口口 |②---|
口口口口
②口②口

口口口④
③口④口
口口③口 |③---|
口④口③ |④---|
44
口 |①---|
口口口口 |②-③-|
②口口①
口口口③

口口④④
口口口口
口⑤口口 |④---|
口口⑥口 |⑤-⑥-|
45
口口口口 |①-②③|
②④③① |④-⑤⑥|
⑤口⑥①
口口口口

口口⑧
口口⑩口
口⑦口⑨ |⑦-⑧-|
口⑪口口 |⑨-⑩⑪|
46
口④④ |①---|
口⑥口 |②-③-|
②⑤口口 |④---|
口口口③ |⑤-⑥-|
47
口口口口 |①-②③|
口口口① |④-⑤⑥|
⑤口⑥①
②④③口

⑨口口⑧
⑪口口
口⑦口⑨ |⑦-⑧-|
口口⑩口 |⑨-⑩⑪|
48
口口④④ |①---|
口口口口 |②-③-|
②⑤口口 |④---|
⑥③ |⑤-⑥-|
49
口口口口 |①-②③|
②④③① |④-⑤⑥|
⑤口⑥①
口口口口

口⑨口⑧
口口⑩口
口⑦口⑨ |⑦-⑧-|
⑪口口 |⑨-⑩⑪|
50
口④④ |①---|
口⑥口 |②-③-|
②⑤口口 |④---|
口口口③ |⑤-⑥-|
51
口口口口 |①-②③|
口口① |④-⑤⑥|
⑤⑥口①
口④③②

口口口⑩
口⑨⑧口
口口⑦⑩ |⑦-⑧⑨|
⑪口⑪口 |⑩-⑪-|
52
口 |①---|
口口口口 |②-③-|
②口口口
口口口③

口口④④
口口口口
口⑤口口 |④---|
口口⑥口 |⑤-⑥-|
53
口口口口 |①-②③|
②④③① |④-⑤⑥|
⑤口⑥①
口口口口

口口⑧
口口⑩口
口⑦口⑨ |⑦-⑧-|
口⑪口口 |⑨-⑩⑪|
54
口④④ |①---|
口⑥口 |②-③-|
②⑤口口 |④---|
口口③口 |⑤-⑥-|
55
口口口口 |①-②③|
口口口① |④-⑤⑥|
⑤口⑥①
②④③口

⑨口口⑧
⑪口口
口⑦口⑨ |⑦-⑧-|
口口⑩口 |⑨-⑩⑪|
56
口口④④ |①---|
口口⑥口 |②-③-|
②⑤口口 |④---|
口③ |⑤-⑥-|
57
口口口口 |①-②-|
③口① |--③-|
口口①
②口②

④④口⑤
口口⑦口
口口⑥ |④-⑤-|
口⑧口口 |⑥-⑦⑧|
58
口④④ |①---|
口⑥口 |②-③-|
②⑤口口 |④---|
口口口③ |⑤-⑥-|
59
口口口口 |①-②③|
口口① |④-⑤⑥|
⑤⑥口①
口④③②

口口⑩⑩
口⑨⑧⑩
口口⑦口 |⑦-⑧⑨|
⑪口口口 |⑩-⑪-|
60
口口 |①---|
口口口口 |②---③-|
②口口②
口口①③

口口口④
口口④口
口⑤⑤口 |④---|
口口⑥口 |⑤---⑥-|
61
口口①口 |①-②③|
②④③① |④-⑤⑥|
⑤口⑥口
口口口口

口口⑧
口口⑩口
口⑦口⑨ |⑦-⑧-|
口⑪口口 |⑨-⑩⑪|
62
⑤口口 |①---|
④⑥口 |②-③-④-|
口⑥③口 |⑤---|
口口②⑦ |⑥---⑦-|
63
口口①口 |①-②③|
口口口① |④-⑤⑥|
⑤口⑥口
②④③口

⑨口口⑧
⑪口⑨
口⑦口口 |⑦-⑧-|
口口⑩口 |⑨-⑩⑪|
64
口口口④ |①---|
口口④口 |②---③-|
②⑤⑤② |④---|
⑥③ |⑤---⑥-|
65
口口①口 |①-②③|
②④③① |④-⑤⑥|
⑤口⑥口
口口口口

口⑨口⑧
口口⑩口
口⑦口⑨ |⑦-⑧-|
⑪口口 |⑨-⑩⑪|
66
⑤口⑥ |①---|
④口口 |②-③-④-|
口口③口 |⑤---|
口口②口 |⑥---|
67
口口⑤⑧ |①---|
⑦④⑧ |②-③-④-|
①③⑥① |⑤-⑥⑦|
⑨②⑨口 |⑧-⑨-|
68
④ |①---|
口口④口 |②---③-|
②⑤⑤② |④---|
口口⑥③ |⑤---⑥-|
69
口口①口 |①-②③|
②④③① |④-⑤⑥|
⑤口⑥口
口口口口

口口⑧
口口⑩口
口⑦口⑨ |⑦-⑧-|
口⑪口口 |⑨-⑩⑪|
70
⑤口口 |①---|
④⑥口 |②-③-④-|
口⑥③口 |⑤---|
口口②⑦ |⑥---⑦-|
71
口口①口 |①-②③|
口口口① |④-⑤⑥|
⑤口⑥口
②④③口

⑨口口⑧
⑪口⑨
口⑦口口 |⑦-⑧-|
口口⑩口 |⑨-⑩⑪|
72
口口口④ |①---|
口口④口 |②---③-|
②⑤⑤② |④---|
⑥③ |⑤---⑥-|
73
口口①口 |①-②-|
③口① |--③-|
口口口
②口②

④④口⑤
口口⑦口
口口⑥ |④-⑤-|
口⑧口口 |⑥-⑦⑧|
74
⑤口口 |①---|
④⑥口 |②-③-④-|
口⑥③口 |⑤---|
口口②⑦ |⑥---⑦-|
75
口口①口 |①-②③|
口口口① |④-⑤⑥|
⑤口⑥口
②④③口

口口口⑩
口⑨⑧⑪
口⑦口⑫ |⑦-⑧⑨|
口口口⑬ |⑩⑪⑫⑬|
76
⑤口⑥ |①---|
④口⑦ |②-③-④-|
口③⑥ |⑤---|
口②口 |⑥-⑦-|
77
⑦⑦⑤口 |①---|
①口④⑦ |②-③-④-|
⑥③口口 |⑤---|
②⑥⑥ |⑥-⑦-|

不確定度: 0

最終更新:2017年03月29日 17:25