少年リップルズ
常盤ゆう

ADVANCED

Level: 7
BPM: 210
Notes: 485

1
口口口口 |----|
口口口口 |----|
口口口口 |----|
口口口口 |----|
2
①②口口 |①-②-|
口③④⑤ |③-④-|
⑥⑦口口 |⑤-⑥-|
口⑧口口 |⑦-⑧-|
3
③④口口 |①-②-|
口⑤⑥⑦ |③-④-|
⑧口口口 |⑤-⑥-|
口口①② |⑦-⑧-|
4
⑥⑦口口 |①-②-|
口⑧口口 |③-④-|
口①②口 |⑤-⑥-|
口③④⑤ |⑦-⑧-|
5
口口口口 |①-②-|
口口①② |③-④-|
③④口口 |⑤-⑥-|
口⑤⑥⑦ |⑦---|
6
口①①口 |①-②-|
②③④⑤ |③-④-|
口口⑦⑥ |⑤---|
口口口口 |⑥-⑦-|
7
口口口口 |①-②-|
口口口口 |--③-|
②①口口 |④-⑤-|
③④⑤⑥ |⑥---|
8
①②口口 |①-②-|
口③④⑤ |③-④-|
⑥⑦口口 |⑤---|
口口口口 |⑥-⑦-|
9
口口口口 |①-②-|
口⑥⑤④ |③---|
口口口口 |④-⑤-|
口①②③ |⑥---|
10
①口口② |①---|
③口口口 |--②-|
口①②口 |----|
口③口口 |③---|
11
口③③口 |--①-|
口②②① |----|
口口口口 |②---|
口口①口 |③---|
12
①口口② |①---|
③口口口 |--②-|
口①②口 |----|
口④口口 |③-④-|
13
口口口口 |--①-|
口口口① |----|
口口口口 |----|
口口①口 |----|
14
口口①① |①---|
②②口口 |②---|
③③口口 |③---|
口口④④ |④---|
15
口口口口 |①---|
口口②② |--②-|
③口①① |--③-|
④口口口 |④---|
16
口口口口 |----|
③③口口 |①---|
口口②② |②---|
口口①① |--③-|
17
口口口口 |----|
口口口口 |①-②-|
①口口口 |----|
②③口口 |③---|
18
口口①① |----|
②②口口 |①---|
③③口口 |②---|
口口口口 |③---|
19
口口口口 |①---|
口口④⑤ |②-③-|
口口③② |--④-|
口口①① |⑤---|
20
口口口口 |----|
口口口口 |①---|
口口②② |②---|
口口①① |----|
21
口口口口 |①---|
①①口口 |②---|
②②口口 |----|
口口口口 |----|
22
口口口口 |----|
①口②③ |①---|
口口口④ |②-③-|
口口口口 |--④-|
23
口口口口 |----|
口口口口 |①---|
口口口口 |②---|
口③②① |③---|
24
口口口口 |①---|
②③④口 |----|
口口口口 |--②-|
①口口口 |③-④-|
25
口口口口 |----|
口口口口 |----|
口口口口 |①---|
口①②口 |②---|
26
口口口口 |①---|
口④③② |----|
口口口口 |--②-|
口口口① |③-④-|
27
口口口口 |----|
口口口口 |----|
口口口口 |①---|
口②①口 |②---|
28
口口口口 |①---|
②③④口 |----|
口口口口 |--②-|
①口口口 |③-④-|
29
口③②① |--①-|
口口口口 |②-③-|
口口口口 |----|
口口口口 |----|
30
①口口① |----|
口②③口 |①---|
口口④口 |②-③-|
口口口口 |--④-|
31
口口口口 |----|
口口口口 |①---|
口口口口 |②---|
口③②① |③---|
32
口口口口 |①---|
②③④⑤ |----|
口口口口 |②-③-|
①口口口 |④-⑤-|
33
口口口口 |----|
口口口口 |----|
口口口口 |①---|
①②口口 |②---|
34
口口口口 |①---|
口口口口 |----|
⑤④③② |②-③-|
口口①口 |④-⑤-|
35
口口口口 |----|
口口口口 |----|
口口口口 |①---|
①②口口 |②---|
36
口口口口 |①---|
口④③② |----|
口口口口 |--②-|
口口①口 |③-④-|
37
②①口③ |----|
口口口口 |①---|
口口口口 |②---|
口口口口 |③---|
38
口口口口 |①---|
口③②口 |②-③-|
④口①口 |----|
口口口口 |--④-|
39
口口口口 |①-②-|
④⑤⑥⑦ |③-④-|
口①②③ |⑤-⑥-|
口口口口 |⑦---|
40
口口口口 |①---|
口口口口 |②-③-|
口③②口 |----|
口口①口 |----|
41
口⑥⑤口 |①-②-|
④③②① |③-④-|
口口口口 |⑤-⑥-|
口口口口 |----|
42
口口口口 |①---|
口③②口 |②-③-|
口口①口 |----|
口口口口 |----|
43
口口口口 |①-②-|
口⑤⑥⑦ |③-④-|
①②③④ |⑤-⑥-|
口口口口 |⑦---|
44
口口⑦口 |①-②-|
口⑥口口 |③-④-|
口口⑤口 |--⑤-|
①②③④ |⑥-⑦-|
45
口口口口 |----|
口②①口 |----|
口口口口 |①---|
口口口口 |②---|
46
口口口口 |①---|
①口口口 |②---|
②口③④ |③-④-|
口口口口 |----|
47
口⑤⑤口 |①---|
④口口口 |--②-|
③口口口 |③-④-|
②口口① |--⑤-|
48
口口口口 |----|
口①口口 |①---|
口口②③ |②-③-|
口口口④ |--④-|
49
口口口口 |----|
口②①口 |----|
口口口口 |①---|
口口口口 |②---|
50
口口口口 |①---|
①口口口 |②---|
②口③④ |③-④-|
口口口⑤ |--⑤-|
51
口④④口 |----|
③口口口 |①---|
②口口口 |②-③-|
口①口口 |--④-|
52
口口口口 |----|
③②口① |----|
口口口口 |①---|
口口口口 |②-③-|
53
口口口口 |--①-|
口口口口 |②---|
口①②口 |③---|
口③④口 |④---|
54
①①①① |①---|
口口口口 |----|
口口口口 |----|
口口口口 |----|
55
①②口口 |----|
口口口口 |----|
口口口口 |----|
口口口口 |①-②-|
56
口口口口 |--①-|
口口②① |②---|
口③④口 |③-④-|
口口口⑤ |--⑤-|
57
③口口口 |--①-|
口口口② |--②-|
①口口口 |--③-|
口口口口 |----|
58
⑥口口⑥ |①-②-|
⑤口③⑤ |--③-|
④口②④ |--④-|
口①口口 |⑤-⑥-|
59
口口口口 |----|
口口口口 |----|
口口口口 |----|
口口口口 |----|
60
口①⑥⑤ |①---|
②③④口 |②-③-|
口口口口 |④-⑤-|
口口口口 |⑥---|
61
口口口⑤ |①-②-|
口口口① |--③-|
口④口② |④---|
③口口口 |⑤---|
62
口①口口 |①---|
②③④⑤ |②-③-|
口口⑥口 |④-⑤-|
口⑦口口 |⑥-⑦-|
63
口口口口 |①-②-|
口口口⑤ |--③-|
口①口④ |④---|
口口②③ |⑤---|
64
口口口① |①---|
口③②口 |②-③-|
口④⑤口 |--④-|
口口口口 |⑤---|
65
口口⑤口 |①-②-|
口③④口 |--③-|
口口口口 |④---|
口②①口 |⑤---|
66
口②口口 |①---|
①口③① |----|
口④口口 |--②-|
口口口口 |③-④-|
67
口口口口 |----|
口口口口 |----|
口口口口 |①---|
①②口口 |②---|
68
口口④⑤ |①---|
口③口口 |②-③-|
口②口口 |--④-|
口口①口 |--⑤-|
69
口口口口 |----|
口口口口 |----|
①②③④ |①-②-|
口口口口 |③-④-|
70
口③②④ |①---|
口①口口 |②-③-|
口口口⑤ |--④-|
口口口口 |--⑤-|
71
①②③口 |----|
口口口口 |----|
口口口口 |①-②-|
口口口口 |③---|
72
口口口口 |①---|
口①口口 |②-③-|
口②③口 |--④-|
口⑤④口 |⑤---|
73
口④③⑤ |①-②-|
口①②口 |--③-|
口口口口 |④---|
口口口口 |⑤---|
74
口口④口 |①---|
①③口① |----|
口口②口 |--②-|
口口口口 |③-④-|
75
口口口口 |----|
口口口口 |----|
口③②① |①-②-|
口口口口 |③---|
76
口①⑤④ |①---|
②③⑥口 |②-③-|
口口口口 |--④-|
口口口口 |⑤-⑥-|
77
口口⑥⑤ |①-②-|
口口口① |--③-|
口④口② |④-⑤-|
③口口口 |⑥---|
78
②①口口 |①-②-|
③④⑤⑥ |③-④-|
口口⑦口 |⑤-⑥-|
口⑧口口 |⑦-⑧-|
79
口⑥⑤口 |①-②-|
口④④口 |--③-|
口①口口 |④-⑤-|
口口②③ |⑥---|
80
口口口口 |①---|
①口口口 |②-③-|
④③②口 |④-⑤-|
口口⑤⑥ |⑥---|
81
口口口口 |①-②-|
⑥①②③ |③-④-|
⑤④口口 |⑤---|
口口口口 |⑥---|
82
①②②① |①---|
口③③口 |----|
口④④口 |--②-|
口口口口 |③-④-|
83
口口口口 |----|
口口口口 |----|
口口口口 |--①-|
口②①口 |②---|
84
口口口口 |①---|
口③④口 |--②-|
②①口口 |----|
口口口口 |③-④-|
85
口②③口 |----|
①口口口 |--①-|
口口口口 |--②-|
口口口口 |③---|
86
口口口口 |①---|
口口口口 |②---|
④③②① |③---|
口口口口 |④---|
87
③口④⑤ |①-②-|
口①②口 |--③-|
口口口口 |--④-|
口口口口 |⑤---|
88
口口口口 |①---|
口④③② |----|
口①①口 |--②-|
口口口口 |③-④-|
89
口口口① |----|
口口②口 |----|
口③口口 |--①-|
口口口口 |②-③-|
90
②口口口 |①---|
口③口口 |----|
口口④口 |--②-|
①口口口 |③-④-|
91
口②③口 |--①-|
口口口① |---②|
口口口口 |--③-|
口口口口 |----|
92
口口口口 |①---|
口口③③ |--②-|
②②①① |----|
口口口口 |③---|
93
口口口口 |--①-|
①①口口 |----|
口②③口 |②---|
口③②口 |③---|
94
②②①① |①---|
口口③③ |--②-|
口口口口 |----|
口口口口 |③---|
95
口口口口 |--①-|
①①口口 |----|
口②③口 |②---|
口③②口 |③---|
96
①②口口 |①-②-|
口③④⑤ |③-④-|
⑥⑦口口 |⑤-⑥-|
口⑧口口 |⑦-⑧-|
97
③④口口 |①-②-|
口⑤⑥⑦ |③-④-|
⑧口口口 |⑤-⑥-|
口口①② |⑦-⑧-|
98
⑤⑥口口 |①-②-|
口⑦⑧口 |③-④-|
口①口口 |⑤-⑥-|
口②③④ |⑦-⑧-|
99
⑦⑧口口 |①-②-|
口口口① |③-④-|
②③口口 |⑤-⑥-|
口④⑤⑥ |⑦-⑧-|
100
口口口口 |①-②-|
口①②③ |③---|
口口口口 |----|
口口口口 |----|


不确定度: 0

最終更新:2012年11月10日 15:19