そこはかとなくロマンセ
日向美ビタースイーツ♪

ADVANCED

Level: 6
BPM: 140
Notes: 339

1
口口口口 |----|
口口口口 |----|
口口口口 |----|
口口口口 |----|
2
口口口口 |①---|
①①口口 |----|
口口口口 |----|
口口口口 |----|
3
口口口口 |①---|
口口口口 |----|
口口①① |----|
口口口口 |----|
4
口口口口 |①---|
口口口口 |----|
口口口口 |----|
口①①口 |----|
5
④口口④ |①--②|
口③③口 |--③-|
②⑤口② |④---|
①口口① |--⑤-|
6
口口口口 |----|
口口①口 |--①-|
口口口口 |----|
口口口口 |----|
7
口口口口 |----|
口口口口 |①---|
②②口口 |②---|
口①①口 |----|
8
口口口口 |①---|
口口①① |----|
口口口口
口口口口

②口口②
③口口③
口口口口 |--②-|
口口口口 |--③-|
9
口口①口 |--①-|
口口口口 |----|
口②②口 |②---|
口口口口 |----|
10
口口口口 |①---|
口口口口 |----|
口口口② |②---|
口①①口 |----|
11
口③③② |①---|
①④④口 |----|
口口口口 |②---|
口口口口 |③-④-|
12
①口口① |----|
②口口② |①-②-|
口③③口 |--③-|
口口口口 |----|
13
口口①① |①---|
口口口口 |----|
②②口口 |②---|
口口口口 |----|
14
口口口口 |①-②-|
④③②① |③-④-|
口⑤⑥⑦ |--⑤-|
口口口口 |⑥-⑦-|
15
口口口口 |--①-|
口口口口 |②-③-|
④⑤⑥口 |--④-|
③②①口 |⑤-⑥-|
16
口⑦口② |①--②|
口⑤⑥口 |--③-|
口③④① |④-⑤-|
口口口口 |⑥-⑦-|
17
②口口① |①-②-|
④口口③ |③-④-|
口⑥⑥口 |--⑤-|
口⑤⑤口 |⑥---|
18
口口口口 |①-②-|
④③②① |③-④-|
口⑤⑥⑦ |--⑤-|
口口口口 |⑥-⑦-|
19
口口口口 |--①-|
口口口口 |②-③-|
④⑤⑥口 |--④-|
③②①口 |⑤-⑥-|
20
⑦③②⑦ |①---|
口⑤④口 |②-③-|
口口⑥① |④-⑤-|
口口口口 |⑥-⑦-|
21
口口①口 |----|
口口②口 |----|
口口③口 |--①-|
口口口口 |②-③-|
22
口口口口 |①---|
①①口口 |----|
口④③② |--②-|
口口口口 |③-④-|
23
口②⑤口 |①--②|
口口⑥③ |--③-|
①口⑦④ |④-⑤-|
口口口口 |⑥-⑦-|
24
口口口口 |①---|
①①口口 |----|
口④③② |--②-|
口口口口 |③-④-|
25
口②口口 |①--②|
口口口③ |--③-|
①口口④ |④---|
口口口口 |----|
26
口②口① |①-②-|
口口口③ |③--④|
口④④口 |--⑤-|
口⑤⑤口 |----|
27
①口②口 |①-②-|
③口口口 |③--④|
口④④口 |--⑤-|
口⑤⑤口 |----|
28
口口口口 |①---|
③①①③ |----|
口②②口 |②--③|
口④④口 |--④-|
29
①口口① |①---|
口口口口 |②---|
②口口② |----|
口口口口 |----|
30
口⑥⑥口 |①-②-|
①②口口 |③-④-|
③④口口 |⑤--⑥|
⑤口口口 |----|
31
口⑤⑤口 |--①-|
口口②① |②-③-|
口口④③ |④--⑤|
口口口口 |----|
32
口④④口 |--①-|
口⑤⑤口 |②-③-|
③⑥⑥口 |④--⑤|
①②口口 |--⑥-|
33
口②②口 |①---|
①口口① |----|
口口口口 |②---|
口③③口 |③---|
34
①口口① |①---|
口口②② |----|
口口口口 |②---|
口口口口 |----|
35
④口口④ |①---|
口③③口 |----|
口②②口 |②--③|
①①口口 |--④-|
36
口口口口 |----|
口口③口 |①---|
口②口口 |②---|
①口口口 |③---|
37
口①口① |①---|
口②口② |--②-|
③口③口 |----|
口口口口 |③---|
38
口口口口 |--①-|
口②②口 |----|
口②②口 |②---|
①口①口 |----|
39
口口口口 |----|
口口口口 |----|
口口口口 |----|
口口口口 |----|
40
口口口④ |①-②-|
口口口口 |③--④|
口③②口
①口口口

口⑤口口
口⑥口口
口⑦口口 |--⑤-|
口口口口 |⑥-⑦-|
41
②⑥①⑤ |①-②-|
④口③⑦ |③-④-|
口口口口 |--⑤-|
口口口口 |⑥-⑦-|
42
口口口④ |①-②-|
口口口口 |③--④|
口③②口
①口口口

口⑤口口
口⑥口口
口⑦口口 |--⑤-|
口口口口 |⑥-⑦-|
43
②口①口 |①-②-|
④口③口 |③-④-|
口⑤口口 |----|
口口口口 |⑤---|
44
②口①① |①-②-|
④口③③ |③-④-|
⑥口⑤⑤ |⑤-⑥-|
⑧口⑦⑦ |⑦-⑧-|
45
②口①① |①-②-|
④口③③ |③-④-|
⑥口⑤⑤ |⑤-⑥-|
⑧口⑦⑦ |⑦-⑧-|
46
④④③③ |①---|
①⑤⑤① |②---|
口②②口 |③--④|
口口口口 |--⑤-|
47
口口口口 |①---|
口口口口 |----|
口①①口 |----|
口口口口 |----|
48
口口口④ |①-②-|
口口口口 |③--④|
口③②口
①口口口

口⑤口口
口⑥口口
口⑦口口 |--⑤-|
口口口口 |⑥-⑦-|
49
②⑥①⑤ |①-②-|
④口③⑦ |③-④-|
口口口口 |--⑤-|
口口口口 |⑥-⑦-|
50
口口口④ |①-②-|
口口口口 |③--④|
口③②口
①口口口

口⑤口口
口⑥口口
口⑦口口 |--⑤-|
口口口口 |⑥-⑦-|
51
②口①口 |①-②-|
④口③口 |③-④-|
口⑤⑤口 |----|
口口口口 |⑤---|
52
①口口① |①---|
③口口③ |②---|
④口口④ |③---|
口②②口 |④---|
53
①④④① |①---|
③口口③ |②---|
口口口口 |③---|
②⑤⑤② |④-⑤-|
54
④口口口 |--①-|
口③②口 |②-③-|
口⑤⑤① |④---|
口口口口 |--⑤-|
55
②⑦⑦① |--①-|
④口口③ |②-③-|
⑥口口⑤ |④-⑤-|
口口口口 |⑥-⑦-|
56
口口①① |----|
口口口口 |----|
口口口口 |--①-|
口口口口 |----|
57
口口口口 |①---|
口口口口 |----|
口口①① |②---|
口②②口 |----|
58
口口口③ |①---|
口②①④ |--②-|
口①②⑤ |--③-|
口口口口 |④-⑤-|
59
①口口口 |--①-|
口②口口 |--②-|
口口③口 |--③-|
口口口口 |----|

不確定度: 0

最終更新:2017年03月29日 17:17