じもとっこスイーツ♪
ホララ・ホリック with 日向美ビタースイーツ♪

ADVANCED

Level: 6
BPM: 108
Notes: 352

1
口口口口 |----|
口口口口 |----|
口口口口 |----|
口口口口 |----|
2
口口口② |①-②-|
③④口⑨ |③④-⑤|
⑦⑧口⑤ |--⑥-|
口①①⑥ |⑦⑧-⑨|
3
口口口口 |--①-|
口口口口 |②③-④|
口口口① |----|
②③口④ |----|
4
①口口口 |--①-|
④口③② |②③-④|
⑤口⑦⑥ |--⑤-|
⑧口口口 |⑥⑦-⑧|
5
口口口口 |----|
口①①口 |①---|
口口口口
口口口口

口⑥⑤口
口口⑦口
口④③口 |②③④-|
口口口② |⑤⑥⑦-|
6
口口口口 |①---|
①口口① |②---|
②口口② |③---|
口③③口 |----|
7
⑦口口⑦ |①-②-|
③⑥⑤③ |③-④-|
④口口④ |⑤-⑥-|
口②①口 |⑦---|
8
口口口口 |①-②-|
口③①口 |③-④-|
⑤④②⑤ |⑤---|
口口口口 |----|
9
⑦口口⑦ |①-②-|
③⑥⑤③ |③-④-|
④口口④ |⑤-⑥-|
口②①口 |⑦---|
10
口⑤⑤口 |①-②-|
③⑥⑥② |③-④-|
口①①④ |⑤-⑥-|
口口口口 |----|
11
口⑥⑥③ |①-②-|
④口口⑤ |----|
口口②② |③-④-|
口口①① |⑤-⑥-|
12
口口口口 |①-②-|
口口口口 |----|
②②口口
①①口口

口口口口
口口口口
④口口⑤ |③-④-|
口⑥⑥③ |⑤-⑥-|
13
口口①① |①-②-|
口口②② |----|
口口口口
口口口口

口口口口
口⑥⑥口
④口口⑤ |③-④-|
口口口③ |⑤-⑥-|
14
③④⑤⑥ |①-②-|
①口口② |③④⑤⑥|
口口口口
口口口口

口口口口
⑨口口⑨
口⑦⑦口 |⑦-⑧-|
口⑧⑧口 |⑨---|
15
②⑥⑥① |①-②-|
口③③口 |③-④-|
④口口⑤ |⑤--⑥|
口口口口 |----|
16
⑦⑥⑥⑦ |--①-|
口⑧⑧口 |②③④⑤|
①②③① |⑥-⑦-|
口④⑤口 |--⑧-|
17
口口口口 |①---|
①口口① |----|
口口口口
口口口口

②口口③
④口口⑤
口口口口 |②-③-|
口口口口 |④-⑤-|
18
③④口② |①-②-|
口⑤⑤口 |③④-⑤|
口①①口
口口口口

口口⑧⑦
口口口口
口⑥⑥口 |--⑥-|
口口口口 |⑦⑧--|
19
口④④⑦ |--①-|
②③⑤⑥ |②③-④|
口①①口 |--⑤-|
口口口口 |⑥-⑦-|
20
③②①口 |①-②-|
④⑤⑥⑦ |③-④-|
口口口⑧ |⑤-⑥-|
口口口口 |⑦-⑧-|
21
口口口口 |①-②-|
口④④口 |③-④-|
③②①口 |----|
口口口口 |----|
22
口口口口 |--①-|
口口口口 |②-③-|
口⑦⑥⑤ |④-⑤-|
①②③④ |⑥-⑦-|
23
口口口口 |①---|
④③②④ |②-③-|
①口口口 |--④-|
口口口口 |----|
24
口口口① |--①-|
口③②口 |②-③-|
④口口⑦ |④-⑤-|
口⑤⑥口 |⑥-⑦-|
25
③口口③ |①---|
口①①口 |②--③|
口②②口 |----|
口口口口 |----|
26
⑤口口口 |--①②|
口①②⑥ |③④--|
⑦③④口 |⑤--⑥|
口口口口 |---⑦|
27
口口口口 |①-②③|
口④④口 |-④-⑤|
口①③② |----|
口⑤⑤口 |----|
28
口口口口 |①---|
口①①口 |----|
口①①口 |----|
口口口口 |----|
29
⑤口口口 |①--②|
口④③② |③④-⑤|
口①①口
口口口口

口口⑥口
口口⑦口
口口⑧口 |--⑥-|
口口口口 |⑦-⑧-|
30
口口口口 |①-②③|
口口口口 |----|
②③口口 |----|
④口①口 |--④-|
31
⑤口口口 |①--②|
口口口口 |③④-⑤|
①④③②
口口口口

口口口⑧
⑥口口口
⑦口口口 |-⑥-⑦|
口口口口 |--⑧-|
32
①口口口 |①---|
口口口口 |②---|
口口口口
口②②口

④口口④
口口口口
口③③口 |③--④|
口口口口 |----|
33
⑤口口口 |①--②|
口口口口 |③④-⑤|
②③④口
口口①①

口口⑥口
口口⑦口
口口⑧口 |--⑥-|
口口口口 |⑦-⑧-|
34
①②③④ |①②③④|
口口口口 |----|
口口口口 |----|
⑤口口口 |--⑤-|
35
口口口口 |①--②|
⑤口口口 |③④-⑤|
①④③②
口口口口

口口口口
口口口⑥
口口⑨口 |--⑥-|
口⑧⑦口 |-⑦⑧⑨|
36
①⑦⑦② |①②③④|
③⑥⑥④ |⑤⑥-⑦|
⑤口口口 |----|
口口口口 |----|
37
①②③口 |①②③-|
口口口④ |④-⑤⑥|
⑤⑥口口
口口口口

口⑨⑩口
口⑪⑫口
口⑬⑦⑧ |⑦⑧-⑨|
口口口口 |⑩⑪⑫⑬|
38
②⑥⑥① |①②③④|
④⑦⑦③ |⑤⑥-⑦|
口口口⑤ |----|
口口口口 |----|
39
口口口口 |①②③④|
⑤口口⑩ |⑤-⑥⑦|
③④⑨⑧ |⑧⑨⑩-|
①②⑦⑥ |----|
40
口④⑤口 |①②③-|
口⑥⑦口 |④⑤⑥⑦|
口③口口
口①②口

口口口⑧
口口口⑨
口口口⑩ |-⑧⑨⑩|
⑪⑫⑬⑭ |⑪⑫⑬⑭|
41
口口口口 |①---|
④①①④ |--②③|
口③②口 |--④-|
口口口口 |----|
42
口口口口 |----|
口①①口 |①---|
口①①口
口口口口

口④③②
⑤⑥⑦口
口口口口 |②③④-|
口口口口 |⑤⑥⑦-|
43
口口口口 |①---|
口口口口 |----|
口①①口 |----|
口口口口 |----|
44
口口口口 |----|
口①①口 |①---|
口①①口
口口口口

口④③②
⑤⑥⑦口
口口口口 |②③④-|
口口口口 |⑤⑥⑦-|
45
口②②口 |①---|
口口口口 |②---|
口①①口 |③---|
口③③口 |----|

不確定度: 0

最終更新:2017年03月29日 17:16